<?xml version="1.0" standalone="no"?>
<!DOCTYPE svg PUBLIC "-//W3C//DTD SVG 1.1//EN" "http://www.w3.org/Graphics/SVG/1.1/DTD/svg11.dtd" >
<svg xmlns="http://www.w3.org/2000/svg" xmlns:xlink="http://www.w3.org/1999/xlink" version="1.1">
<metadata>
Created by FontForge 20150318 at Thu Oct 22 06:39:08 2015
 By uniteet7
2014
</metadata>
<defs>
<font id="HarabaraMaisBold-HarabaraMaisBold" horiz-adv-x="537" >
  <font-face 
    font-family="Harabara Mais Demo"
    font-weight="400"
    font-stretch="normal"
    units-per-em="1000"
    panose-1="2 11 6 3 5 3 2 2 2 4"
    ascent="800"
    descent="-200"
    x-height="529"
    cap-height="680"
    bbox="-1166.03 -257.013 1023 922"
    underline-thickness="0"
    underline-position="0"
    stemh="117"
    stemv="139"
    unicode-range="U+0020-25A0"
  />
<missing-glyph horiz-adv-x="1035" 
d="M326 680h112l246 -680h-149l-45 141h-263l-45 -141h-147l225 635c10 30 32 45 66 45zM357 543l-93 -289h187z" />
    <glyph glyph-name=".notdef" horiz-adv-x="1035" 
d="M326 680h112l246 -680h-149l-45 141h-263l-45 -141h-147l225 635c10 30 32 45 66 45zM357 543l-93 -289h187z" />
    <glyph glyph-name="space" unicode=" " horiz-adv-x="468" 
 />
    <glyph glyph-name="exclam" unicode="!" horiz-adv-x="197" 
d="M57 184l-22 427c-4 47 20 70 69 69h66l-24 -496h-89zM86 131h82v-131h-133v82c0 33 17 49 51 49z" />
    <glyph glyph-name="numbersign" unicode="#" horiz-adv-x="804" 
d="M203 510h86l53 162h41c36 0 56 -12 61 -36s4 -44 -1 -60l-21 -66h92l54 162h39c63 0 77 -41 63 -96l-22 -66h120l-43 -125h-120l-31 -96h119l-43 -127h-119l-54 -162h-135l54 162h-91l-53 -162h-135l55 162h-147l22 65c12 42 39 62 82 62h86l31 96h-146l21 64
c13 40 40 61 82 61zM471 385h-90l-33 -96h91z" />
    <glyph glyph-name="dollar" unicode="$" horiz-adv-x="623" 
d="M348 107c70 4 104 31 103 82c0 50 -53 65 -103 79v-161zM273 576c-55 -7 -82 -32 -85 -78c0 -35 28 -62 85 -82v160zM348 -94h-75v82c-148 12 -224 86 -228 221h135c4 -57 34 -92 93 -102v180c-10 2 -9 2 -19 4c-133 34 -199 96 -199 186c3 133 75 202 218 207v84
c49 0 75 -22 75 -65v-19c135 -10 206 -80 214 -209h-78c-29 -1 -49 14 -62 48c-10 30 -35 48 -74 53v-181c42 -10 86 -24 134 -41c76 -27 111 -83 106 -166c-8 -125 -88 -192 -240 -200v-82z" />
    <glyph glyph-name="percent" unicode="%" horiz-adv-x="681" 
d="M535 680h63l-401 -690h-113l385 662c14 26 30 28 66 28zM660 156c0 77 -65 145 -142 145s-143 -68 -143 -145s66 -142 143 -142s142 65 142 142zM21 512c0 79 64 142 143 142c77 0 143 -65 143 -142s-66 -143 -143 -143c-79 0 -143 64 -143 143zM234 512
c0 39 -31 70 -70 70s-70 -31 -70 -70s31 -71 70 -71s70 32 70 71zM447 156c0 39 32 71 71 71s70 -32 70 -71s-31 -68 -70 -68s-71 29 -71 68z" />
    <glyph glyph-name="ampersand" unicode="&#x26;" horiz-adv-x="638" 
d="M242 303l-35 -26c-29 -21 -43 -49 -43 -84c0 -59 32 -89 96 -93c44 0 80 15 107 48zM287 592c-36 0 -56 -18 -57 -53c0 -18 10 -38 28 -60l23 -30c37 19 61 49 61 92c-1 34 -20 51 -55 51zM287 691c98 0 172 -54 172 -150c0 -86 -51 -135 -111 -172l97 -123
c16 29 27 67 34 115h72c31 0 46 -17 43 -52c-3 -49 -27 -102 -74 -155l126 -152h-160l-47 57c-25 -23 -54 -48 -89 -57c-96 -23 -199 -12 -260 37c-40 36 -61 85 -61 145c0 112 65 159 147 205l-28 35c-48 73 -59 163 8 222c34 29 78 44 131 45z" />
    <glyph glyph-name="quotesingle" unicode="'" horiz-adv-x="156" 
d="M64 680h51v-73l-39 -169l-41 167v47c0 18 9 28 29 28z" />
    <glyph glyph-name="parenleft" unicode="(" horiz-adv-x="281" 
d="M270 691c-73 -116 -118 -243 -118 -412c0 -170 45 -291 118 -408h-92c-78 105 -155 245 -155 408c0 136 54 256 116 354c32 51 70 58 131 58z" />
    <glyph glyph-name="parenright" unicode=")" horiz-adv-x="292" 
d="M35 -129c70 121 117 237 117 410c0 170 -48 295 -117 410h90c81 -110 154 -247 154 -410c0 -64 -13 -131 -39 -203c-20 -49 -44 -99 -74 -148c-33 -50 -71 -59 -131 -59z" />
    <glyph glyph-name="asterisk" unicode="*" horiz-adv-x="306" 
d="M158 680h26v-80l50 13c18 7 31 1 36 -19l7 -26l-76 -23l29 -43c10 -14 9 -27 -7 -39l-22 -16l-45 67l-31 -43c-12 -14 -25 -16 -41 -4l-22 15l47 63l-74 23l6 26c7 20 18 26 35 19l51 -13v52c0 18 10 28 31 28z" />
    <glyph glyph-name="comma" unicode="," horiz-adv-x="183" 
d="M78 105h70v-101c0 -80 -45 -117 -115 -129v21c0 10 9 22 29 32c23 13 36 31 36 54c0 12 -7 18 -20 18h-43v66c0 26 14 39 43 39z" />
    <glyph glyph-name="period" unicode="." horiz-adv-x="183" 
d="M78 105h70v-105h-113v66c0 26 14 39 43 39z" />
    <glyph glyph-name="slash" unicode="/" horiz-adv-x="314" 
d="M39 -86h-51l242 834h71l-239 -816c-5 -12 -13 -18 -23 -18z" />
    <glyph glyph-name="zero" unicode="0" horiz-adv-x="560" 
d="M281 691c167 0 251 -117 254 -351c3 -233 -82 -350 -254 -350s-256 118 -252 352c1 233 85 349 252 349zM281 580c-73 0 -109 -79 -109 -238c-3 -160 33 -240 109 -240s113 79 112 238c-1 160 -39 240 -112 240z" />
    <glyph glyph-name="one" unicode="1" horiz-adv-x="345" 
d="M35 557c76 0 135 55 154 123h41c47 0 71 -24 71 -71v-611h-139v459h-127v100z" />
    <glyph glyph-name="two" unicode="2" horiz-adv-x="552" 
d="M96 439c-44 0 -61 26 -51 77c23 117 103 175 238 175c154 0 233 -71 240 -216c-3 -52 -16 -92 -39 -121c-26 -36 -96 -94 -211 -172c-33 -21 -50 -42 -54 -63h297v-119h-491c3 60 18 116 47 168c30 48 72 90 127 125s103 70 145 105c22 18 34 45 37 79
c4 68 -30 102 -100 105c-74 0 -110 -48 -109 -143h-76z" />
    <glyph glyph-name="three" unicode="3" horiz-adv-x="552" 
d="M242 402c75 0 119 25 119 94c1 57 -29 86 -91 86s-95 -36 -98 -109h-72c-47 -1 -64 23 -51 72c29 98 104 146 226 146c148 1 224 -60 227 -185c3 -62 -25 -108 -84 -135c73 -26 109 -79 109 -160c0 -146 -85 -220 -257 -221c-171 0 -253 76 -245 227h135
c1 -77 38 -115 111 -114s110 34 110 102s-44 103 -133 104h-21v93h15z" />
    <glyph glyph-name="four" unicode="4" horiz-adv-x="574" 
d="M330 0v150h-295v123l258 407h103c46 0 69 -24 69 -71v-345h82v-114h-82v-150h-135zM332 260v299l-189 -299h189z" />
    <glyph glyph-name="five" unicode="5" horiz-adv-x="552" 
d="M383 229c0 83 -38 125 -115 125c-39 0 -71 -16 -94 -49l-125 7l45 368h332c47 0 70 -24 70 -71v-47h-303l-19 -132c36 23 74 35 113 35c160 0 240 -77 240 -229c0 -159 -87 -241 -261 -246c-152 0 -233 69 -241 207h137c1 -65 36 -97 104 -97c78 0 117 43 117 129z" />
    <glyph glyph-name="six" unicode="6" horiz-adv-x="560" 
d="M289 98c66 0 101 42 104 127c-4 77 -40 115 -108 115c-69 -3 -104 -40 -107 -113c1 -86 38 -129 111 -129zM29 324c0 212 77 367 276 367c118 0 205 -70 211 -175h-102c-16 0 -28 7 -37 21c-20 30 -49 45 -88 45c-86 0 -109 -82 -113 -178c36 31 81 47 133 47
c135 0 226 -88 226 -222c0 -142 -98 -239 -246 -239c-189 0 -260 133 -260 334z" />
    <glyph glyph-name="seven" unicode="7" horiz-adv-x="580" 
d="M135 0c6 228 120 415 244 561h-344v119h449c36 0 57 -13 62 -39s-1 -49 -17 -67c-70 -80 -133 -166 -175 -267c-43 -98 -68 -200 -75 -307h-144z" />
    <glyph glyph-name="eight" unicode="8" horiz-adv-x="556" 
d="M281 689c155 0 233 -60 233 -181c0 -60 -28 -108 -84 -143c68 -31 101 -86 101 -164c0 -141 -85 -211 -254 -211c-165 3 -248 73 -248 211c0 76 34 130 102 164c-59 20 -88 69 -88 147c8 118 87 177 238 177zM281 580c-62 0 -95 -27 -99 -82c0 -55 32 -82 98 -82
s99 27 99 82c-3 55 -36 82 -98 82zM281 311c-70 0 -106 -34 -109 -102c-3 -70 33 -105 109 -105c74 0 111 35 108 105c-3 68 -39 102 -108 102z" />
    <glyph glyph-name="nine" unicode="9" horiz-adv-x="560" 
d="M275 584c-66 0 -100 -42 -103 -127c4 -77 39 -115 107 -115c69 3 105 40 108 113c-1 86 -39 129 -112 129zM256 230c-135 0 -227 89 -227 223c0 142 98 238 246 238c189 0 260 -133 260 -334c0 -212 -76 -367 -275 -367c-118 0 -205 71 -211 176h101c16 0 29 -7 38 -21
c20 -30 48 -45 87 -45c86 0 110 81 114 177c-36 -31 -81 -47 -133 -47z" />
    <glyph glyph-name="colon" unicode=":" horiz-adv-x="183" 
d="M78 105h70v-105h-113v66c0 26 14 39 43 39zM78 424h70v-106h-113v67c0 26 14 39 43 39z" />
    <glyph glyph-name="semicolon" unicode=";" horiz-adv-x="183" 
d="M78 105h70v-101c0 -80 -45 -117 -115 -129v21c0 10 9 22 29 32c23 13 36 31 36 54c0 12 -7 18 -20 18h-43v66c0 26 14 39 43 39zM78 424h70v-106h-113v67c0 26 14 39 43 39z" />
    <glyph glyph-name="question" unicode="?" horiz-adv-x="501" 
d="M189 195c0 105 14 128 81 184c32 26 74 63 74 117c0 44 -29 67 -88 70c-62 0 -97 -33 -104 -101c-70 0 -125 -16 -125 56c17 108 95 163 233 163c146 0 219 -64 219 -192c0 -39 -11 -72 -32 -101c-18 -22 -53 -59 -105 -110c-17 -16 -27 -38 -30 -68v-18h-123zM234 135
h86v-135h-136v84c0 34 16 51 50 51z" />
    <glyph glyph-name="at" unicode="@" horiz-adv-x="964" 
d="M348 232c0 -57 24 -89 76 -89c25 0 49 9 72 29c20 18 34 44 43 78l27 104c-1 52 -29 78 -84 78c-84 0 -134 -110 -134 -200zM541 150c-31 -49 -69 -78 -141 -78c-102 0 -154 57 -154 162c0 141 93 268 231 268c56 0 87 -26 113 -63l23 47c59 0 81 -24 67 -72l-55 -232
c-4 -22 11 -34 45 -34c64 3 117 72 141 125c13 33 19 71 19 114c0 164 -144 259 -316 259c-105 0 -161 -19 -229 -62c-95 -65 -168 -167 -168 -314c0 -206 153 -321 362 -321c113 0 218 42 287 90c5 -9 6 -26 1 -50s-19 -42 -42 -55c-23 -10 -49 -22 -75 -32
c-57 -18 -114 -27 -170 -27c-201 0 -354 90 -414 223c-25 47 -37 104 -37 170c0 53 9 104 26 152c37 116 138 216 242 262c64 29 138 43 221 43c120 0 199 -30 273 -82c75 -61 129 -137 129 -258c0 -51 -10 -99 -31 -145c-23 -47 -54 -85 -90 -115c-25 -18 -49 -32 -72 -41
c-33 -9 -60 -14 -82 -14c-60 0 -101 20 -104 80z" />
    <glyph glyph-name="A" unicode="A" horiz-adv-x="714" 
d="M326 680h112l244 -680h-147l-45 139h-263l-45 -139h-149l227 635c10 30 32 45 66 45zM357 543l-93 -289h187z" />
    <glyph glyph-name="B" unicode="B" horiz-adv-x="621" 
d="M592 207c0 -141 -101 -207 -248 -207h-309v607c0 39 31 73 70 73h250c128 0 213 -51 213 -172c0 -72 -29 -115 -82 -141c67 -26 106 -70 106 -160zM428 490c0 57 -39 72 -102 72h-154v-146h156c55 0 100 17 100 74zM445 211c0 70 -41 90 -113 90h-160v-178h162
c69 0 111 20 111 88z" />
    <glyph glyph-name="C" unicode="C" horiz-adv-x="669" 
d="M637 236c-13 -157 -123 -246 -295 -246c-209 0 -313 138 -313 350c0 219 110 351 325 351c83 0 150 -20 201 -62c48 -43 75 -102 82 -176h-84c-30 0 -52 14 -65 41c-23 49 -68 74 -134 74c-129 0 -186 -91 -186 -228c0 -133 55 -227 182 -227c87 0 137 48 152 123h135z
" />
    <glyph glyph-name="D" unicode="D" horiz-adv-x="640" 
d="M301 680c216 0 310 -123 310 -340c0 -167 -72 -291 -203 -326c-34 -9 -82 -14 -144 -14h-229v607c0 47 23 72 70 73h196zM469 340c0 136 -42 221 -168 221h-129v-438h111c138 0 186 74 186 217z" />
    <glyph glyph-name="E" unicode="E" horiz-adv-x="564" 
d="M39 0v607c0 47 23 72 70 73h422v-118h-355v-146h265v-45c1 -47 -23 -70 -72 -70h-193v-176h355v-125h-492z" />
    <glyph glyph-name="F" unicode="F" horiz-adv-x="552" 
d="M438 371c0 -39 -34 -70 -73 -70h-193v-301h-137v607c0 39 31 73 70 73h422v-118h-355v-146h266v-45z" />
    <glyph glyph-name="G" unicode="G" horiz-adv-x="677" 
d="M29 340c-3 201 116 359 317 351c79 0 148 -20 205 -60c52 -42 81 -101 86 -178h-86c-25 0 -45 12 -61 35c-27 55 -74 82 -140 82c-117 0 -177 -74 -178 -223s60 -229 185 -238c94 0 149 63 164 145h-82c-39 0 -70 31 -70 70v43h277v-367h-35c-33 0 -65 22 -68 53l-6 33
c-48 -62 -97 -96 -195 -96c-195 0 -313 151 -313 350z" />
    <glyph glyph-name="H" unicode="H" horiz-adv-x="625" 
d="M35 607c0 39 31 73 70 73h71v-254h279v254h141v-680h-141v301h-279v-301h-141v607z" />
    <glyph glyph-name="I" unicode="I" horiz-adv-x="208" 
d="M35 0v607c0 48 23 73 70 73h69v-680h-139z" />
    <glyph glyph-name="J" unicode="J" horiz-adv-x="498" 
d="M326 609c0 37 32 71 70 71h69v-475c0 -36 -3 -68 -8 -94c-23 -87 -104 -121 -205 -121c-98 0 -183 34 -207 115c-7 16 -10 49 -10 100v53h133v-82c0 -48 27 -72 82 -72c51 0 76 26 76 78v427z" />
    <glyph glyph-name="K" unicode="K" horiz-adv-x="611" 
d="M35 607c0 39 31 73 70 73h69v-280l265 280h176l-271 -276l295 -404h-170l-172 240c-30 40 -58 56 -84 47s-39 -26 -39 -49v-238h-139v607z" />
    <glyph glyph-name="L" unicode="L" horiz-adv-x="529" 
d="M35 607c0 39 31 73 70 73h69v-555h332v-125h-471v607z" />
    <glyph glyph-name="M" unicode="M" horiz-adv-x="751" 
d="M35 607c0 39 31 73 70 73h135l137 -518l133 518h207v-680h-131v549l-139 -549h-142l-139 549v-549h-131v607z" />
    <glyph glyph-name="N" unicode="N" horiz-adv-x="634" 
d="M37 607c0 39 31 73 70 73h75l277 -467v467h137v-680h-145l-277 467v-467h-137v607z" />
    <glyph glyph-name="O" unicode="O" horiz-adv-x="712" 
d="M354 570c-127 0 -186 -98 -186 -230c0 -133 59 -233 186 -233s187 96 187 233c0 134 -60 230 -187 230zM354 -10c-207 0 -325 142 -325 350s123 351 325 351c203 0 326 -145 326 -351c0 -209 -119 -350 -326 -350z" />
    <glyph glyph-name="P" unicode="P" horiz-adv-x="582" 
d="M555 461c0 -134 -73 -219 -209 -219h-172v-242h-139v607c0 39 31 73 70 73h231c144 0 219 -77 219 -219zM176 365h135c70 -1 105 32 105 98s-33 99 -98 99h-142v-197z" />
    <glyph glyph-name="Q" unicode="Q" horiz-adv-x="714" 
d="M531 33c-48 -29 -107 -43 -177 -43c-207 0 -325 141 -325 350c0 205 121 349 325 349c206 0 326 -143 326 -349c0 -99 -26 -178 -71 -233l73 -70l-37 -37c-26 -23 -52 -24 -75 -2zM512 201c21 37 29 81 29 139c0 134 -60 230 -187 230s-186 -100 -186 -230
c0 -133 58 -233 186 -233c13 0 26 1 42 4c18 5 32 10 40 14l-73 68l24 26c26 27 55 31 86 11z" />
    <glyph glyph-name="R" unicode="R" horiz-adv-x="625" 
d="M582 486c0 -86 -37 -142 -102 -160c29 -10 51 -26 65 -47c12 -23 18 -57 21 -101l6 -133c1 -21 9 -36 22 -45h-153c-7 13 -10 27 -11 41c-3 10 -5 49 -6 115c-5 82 -20 108 -102 108h-148v-264h-139v607c0 39 31 73 70 73h258c141 0 219 -54 219 -194zM441 473
c0 62 -33 89 -95 89h-172v-179h164c66 0 103 24 103 90z" />
    <glyph glyph-name="S" unicode="S" horiz-adv-x="623" 
d="M320 105c89 0 132 28 131 84c0 33 -20 55 -62 67c-40 12 -86 24 -135 37c-133 34 -199 96 -199 186c3 143 88 213 256 212c160 0 243 -70 251 -211h-78c-29 0 -49 14 -62 40c-23 39 -64 58 -123 58c-72 -1 -108 -28 -111 -80c0 -43 43 -74 132 -94
c51 -12 105 -27 162 -47c76 -26 112 -82 108 -168c-8 -133 -98 -199 -270 -199c-180 0 -271 75 -275 223h135c5 -72 51 -108 140 -108z" />
    <glyph glyph-name="T" unicode="T" horiz-adv-x="605" 
d="M35 607c0 39 31 73 70 73h471v-121h-201v-559h-139v559h-201v48z" />
    <glyph glyph-name="U" unicode="U" horiz-adv-x="603" 
d="M35 607c0 37 32 73 70 73h69v-420c0 -99 44 -149 131 -150s131 50 131 150v420h138v-436c0 -167 -98 -254 -269 -254c-174 0 -270 82 -270 254v363z" />
    <glyph glyph-name="V" unicode="V" horiz-adv-x="666" 
d="M535 680h100l-233 -680h-132l-235 680h154l145 -508l133 457c8 34 30 51 68 51z" />
    <glyph glyph-name="W" unicode="W" horiz-adv-x="906" 
d="M814 680h86l-193 -680h-133l-105 521l-106 -521h-134l-194 680h145l115 -479l100 479h148l98 -479l103 426c12 35 35 53 70 53z" />
    <glyph glyph-name="X" unicode="X" horiz-adv-x="648" 
d="M504 680h121l-213 -332l213 -348h-162l-139 236l-138 -236h-161l213 348l-213 332h161l138 -239l119 204c12 23 32 35 61 35z" />
    <glyph glyph-name="Y" unicode="Y" horiz-adv-x="664" 
d="M416 0h-141v254l-246 426h170l147 -293l115 252c13 27 34 41 64 41h114l-223 -426v-254z" />
    <glyph glyph-name="Z" unicode="Z" horiz-adv-x="601" 
d="M113 557c-39 0 -72 33 -72 72v51h533v-118l-371 -439h363v-123h-531v119l369 438h-291z" />
    <glyph glyph-name="backslash" unicode="\" horiz-adv-x="347" 
d="M70 748c10 0 18 -6 22 -18l240 -816h-70l-244 834h52z" />
    <glyph glyph-name="underscore" unicode="_" horiz-adv-x="691" 
d="M72 -203c0 34 25 60 59 60h480v-89h-539v29z" />
    <glyph glyph-name="a" unicode="a" horiz-adv-x="498" 
d="M221 98c74 0 119 44 119 119v49c-31 -13 -67 -24 -106 -32c-53 -10 -80 -35 -80 -74c3 -42 25 -62 67 -62zM252 428c-47 0 -73 -12 -80 -37h-133c16 98 85 146 207 146c146 0 220 -48 223 -146v-180c0 -146 -88 -211 -231 -221c-127 -10 -215 49 -215 166
c3 127 95 161 229 174c57 7 86 24 86 53c-3 30 -31 45 -86 45z" />
    <glyph glyph-name="b" unicode="b" horiz-adv-x="554" 
d="M168 613v-158c34 55 84 82 150 82c141 -5 211 -97 211 -277c0 -176 -82 -265 -246 -268c-165 -1 -248 78 -248 237v451h67c44 0 66 -23 66 -67zM281 418c-72 0 -109 -50 -113 -152c-1 -107 35 -161 111 -161s114 54 114 161c-3 102 -40 152 -112 152z" />
    <glyph glyph-name="c" unicode="c" 
d="M502 162c-24 -108 -102 -177 -225 -174c-160 0 -242 92 -246 274c0 181 81 272 244 275c128 0 204 -57 227 -172h-145c-16 36 -44 55 -86 55c-70 0 -105 -53 -105 -158s37 -158 111 -157c31 0 58 13 80 38c13 13 28 19 45 19h100z" />
    <glyph glyph-name="d" unicode="d" horiz-adv-x="548" 
d="M279 418c-72 0 -109 -50 -113 -152c-1 -107 35 -161 111 -161s114 54 114 161c-3 102 -40 152 -112 152zM457 680c36 0 66 -31 66 -67v-384c0 -159 -83 -238 -248 -237c-164 3 -246 92 -246 268c0 180 70 272 211 277c66 0 117 -27 151 -82v225h66z" />
    <glyph glyph-name="e" unicode="e" 
d="M502 162c-29 -112 -101 -174 -231 -174c-160 5 -240 98 -240 278s81 270 242 271c168 0 247 -103 237 -310h-342c5 -81 40 -122 105 -122c31 0 60 13 86 38c12 13 27 19 45 19h98zM271 428c-57 0 -91 -36 -101 -106h199c-8 70 -41 106 -98 106z" />
    <glyph glyph-name="f" unicode="f" horiz-adv-x="283" 
d="M252 465c0 -36 -30 -67 -66 -67h-18v-398h-133v543c-5 101 54 141 153 141c23 0 44 -1 64 -4v-110h-35c-31 0 -48 -13 -51 -39v-35h86v-31z" />
    <glyph glyph-name="g" unicode="g" horiz-adv-x="548" 
d="M275 107c72 0 110 51 114 153c1 107 -36 160 -112 160s-113 -53 -113 -160c3 -102 39 -153 111 -153zM238 -10c-141 0 -211 92 -211 274c0 176 82 264 246 267c165 1 248 -77 248 -236v-313c0 -133 -84 -200 -253 -203c-120 0 -196 56 -227 168h147c9 -38 40 -56 95 -56
c70 0 106 41 106 123c0 0 0 -1 0 54c-34 -52 -85 -78 -151 -78z" />
    <glyph glyph-name="h" unicode="h" horiz-adv-x="556" 
d="M391 271c0 89 -34 147 -110 147c-79 0 -113 -66 -113 -147v-271h-133v680h67c44 0 66 -23 66 -67v-158c68 78 151 100 250 65c74 -27 109 -98 105 -213v-307h-132v271z" />
    <glyph glyph-name="i" unicode="i" horiz-adv-x="208" 
d="M35 680h69c44 0 65 -22 64 -65v-39h-133v104zM35 529h69c43 0 64 -21 64 -64v-465h-133v529z" />
    <glyph glyph-name="j" unicode="j" horiz-adv-x="208" 
d="M35 680h69c44 0 65 -22 64 -65v-39h-133v104zM168 -82c0 -99 -63 -129 -168 -129h-23v117h25c24 0 33 13 33 35v588h69c43 0 64 -21 64 -64v-547z" />
    <glyph glyph-name="k" unicode="k" horiz-adv-x="488" 
d="M104 680c35 0 64 -30 64 -65v-293l164 188h160l-183 -196l185 -314h-160l-94 174c-17 30 -34 45 -51 45c-14 -3 -21 -12 -21 -26v-193h-133v680h69z" />
    <glyph glyph-name="l" unicode="l" horiz-adv-x="208" 
d="M104 680c35 0 64 -30 64 -65v-615h-133v680h69z" />
    <glyph glyph-name="m" unicode="m" horiz-adv-x="845" 
d="M260 420c-59 0 -89 -27 -90 -82v-338h-135v311c0 151 76 226 227 226c68 0 120 -15 158 -45c38 29 90 43 158 43c151 0 226 -75 225 -226v-311h-69c-44 3 -66 24 -66 66v272c-3 55 -33 82 -92 82s-89 -27 -90 -82v-336h-134v338c-3 55 -33 82 -92 82z" />
    <glyph glyph-name="n" unicode="n" horiz-adv-x="511" 
d="M486 0h-68c-44 3 -66 24 -66 66v272c-3 55 -33 82 -92 82s-89 -27 -90 -82v-338h-135v311c0 151 76 226 227 226s225 -75 224 -226v-311z" />
    <glyph glyph-name="o" unicode="o" horiz-adv-x="541" 
d="M271 537c160 0 241 -91 241 -275c0 -182 -81 -274 -241 -274s-240 92 -240 274c0 184 80 275 240 275zM271 420c-70 0 -105 -53 -105 -158c1 -103 36 -155 104 -155s102 54 103 159c0 103 -34 154 -102 154z" />
    <glyph glyph-name="p" unicode="p" horiz-adv-x="556" 
d="M168 -141v213c34 -55 84 -82 150 -82c141 5 211 98 211 278c0 178 -82 267 -246 267c-159 0 -241 -78 -248 -236v-506h67c44 0 66 22 66 66zM281 109c-72 0 -109 51 -113 153c-1 107 35 160 111 160s114 -53 114 -160c-3 -102 -40 -153 -112 -153z" />
    <glyph glyph-name="q" unicode="q" horiz-adv-x="548" 
d="M387 -141v213c-34 -55 -85 -82 -151 -82c-141 5 -211 98 -211 278c0 178 82 267 246 267c159 0 242 -78 249 -236v-506h-67c-44 0 -66 22 -66 66zM273 109c72 0 110 51 114 153c1 107 -36 160 -112 160s-113 -53 -113 -160c3 -102 39 -153 111 -153z" />
    <glyph glyph-name="r" unicode="r" horiz-adv-x="353" 
d="M35 0v273c4 171 95 256 272 256h19v-138h-45c-74 0 -111 -39 -111 -116v-275h-135z" />
    <glyph glyph-name="s" unicode="s" horiz-adv-x="511" 
d="M156 174c3 -58 45 -78 110 -78c56 0 84 16 84 50c0 27 -46 49 -137 65c-117 21 -177 73 -178 156c0 114 90 168 211 170c68 0 122 -15 162 -45c39 -31 60 -74 63 -129h-84c-31 1 -51 12 -59 33c-9 23 -36 36 -80 36c-52 0 -78 -14 -78 -41s34 -48 103 -61
c90 -18 149 -41 178 -68c25 -26 37 -58 37 -94c0 -130 -102 -178 -242 -178c-74 0 -130 16 -166 47c-40 30 -60 76 -60 137h136z" />
    <glyph glyph-name="t" unicode="t" horiz-adv-x="269" 
d="M248 500c0 -38 -29 -66 -66 -66h-14v-293c0 -22 13 -34 39 -34h41v-101c-43 -4 -90 -4 -140 1s-74 36 -73 95v578h69c35 0 64 -32 64 -67v-84h80v-29z" />
    <glyph glyph-name="u" unicode="u" horiz-adv-x="503" 
d="M480 529v-318c0 -91 -23 -151 -70 -180c-47 -27 -99 -41 -156 -41c-55 0 -104 15 -150 45c-46 29 -69 87 -69 176v318h133v-345c0 -59 30 -88 90 -88s90 29 90 88v279c-1 44 20 66 64 66h68z" />
    <glyph glyph-name="v" unicode="v" horiz-adv-x="554" 
d="M436 529h103l-187 -529h-141l-186 529h147l107 -371l92 324c10 31 32 47 65 47z" />
    <glyph glyph-name="w" unicode="w" horiz-adv-x="765" 
d="M670 529h88l-147 -529h-138l-80 379l-84 -379h-139l-145 529h135l84 -367l76 367h141l72 -367l72 318c10 33 32 49 65 49z" />
    <glyph glyph-name="x" unicode="x" horiz-adv-x="546" 
d="M439 576h122l-200 -306l176 -270h-160l-94 168l-95 -168h-163l172 271l-162 258h153l91 -160l102 172c12 23 31 35 58 35z" />
    <glyph glyph-name="y" unicode="y" horiz-adv-x="556" 
d="M90 -94h37c73 0 99 36 78 106l-180 517h151l105 -367l92 320c8 31 29 47 63 47h93l-209 -619c-32 -87 -64 -117 -174 -117c-34 0 -52 1 -56 4v109z" />
    <glyph glyph-name="z" unicode="z" horiz-adv-x="527" 
d="M119 418c-39 0 -68 29 -68 68v43h433v-113l-281 -301h289v-115h-457v105l283 313h-199z" />
    <glyph glyph-name="braceleft" unicode="{" horiz-adv-x="412" 
d="M275 39c2 -105 -2 -125 79 -125c4 0 11 1 21 2v-57c0 -52 -63 -49 -115 -37c-68 18 -101 55 -100 110c0 20 -1 79 -2 179c0 82 -27 122 -105 119h-18v98h16c84 0 107 31 107 117v137c-7 119 48 158 160 158h57v-97h-21c-68 0 -83 -21 -83 -94v-129
c0 -94 -22 -125 -95 -141c100 -31 101 -65 99 -240z" />
    <glyph glyph-name="bar" unicode="|" horiz-adv-x="146" 
d="M113 832v-1088h-78v1033c-1 36 20 55 63 55h15z" />
    <glyph glyph-name="braceright" unicode="}" horiz-adv-x="412" 
d="M135 39c-2 -105 3 -125 -78 -125c-4 0 -12 1 -22 2v-57c0 -52 63 -49 115 -37c68 18 101 55 100 110c0 20 1 79 2 179c0 82 27 122 105 119h18v98h-16c-84 0 -107 31 -107 117v137c7 119 -48 158 -160 158h-57v-97h22c68 0 82 -21 82 -94v-129c0 -94 22 -125 95 -141
c-100 -31 -101 -65 -99 -240z" />
    <glyph glyph-name="controlDEL" horiz-adv-x="478" 
d="M18 854h275v-778h-275v778zM39 832v-734h236v734h-236z" />
    <glyph glyph-name="tbar" unicode="&#x167;" horiz-adv-x="476" 
d="M244 680c40 0 70 -40 70 -80v-98h141v-107h-141v-213h141v-108h-141v-160h-140v160h-139v53c0 36 21 55 63 55h76v213h-139v52c0 36 21 55 63 55h76v178h70z" />
    <glyph glyph-name="afii10023" unicode="&#x401;" horiz-adv-x="552" 
d="M35 0v607c0 47 23 72 70 73h422v-118h-355v-146h266v-45c1 -47 -24 -70 -73 -70h-193v-176h355v-125h-492zM414 816v-54h-88v88h55c22 0 33 -12 33 -34zM236 816v-54h-88v88h55c22 0 33 -12 33 -34z" />
    <glyph glyph-name="afii10053" unicode="&#x404;" horiz-adv-x="669" 
d="M176 410c12 97 78 158 179 158c66 1 112 -23 135 -74c12 -27 34 -41 65 -41h84c-16 152 -117 238 -284 238c-215 0 -324 -131 -324 -351c0 -212 102 -347 313 -350c172 0 279 89 295 246h-135c-15 -73 -66 -123 -152 -123c-105 0 -163 67 -178 164h252v69
c0 37 -28 64 -65 64h-185z" />
    <glyph glyph-name="afii10056" unicode="&#x407;" horiz-adv-x="208" 
d="M35 0v607c0 48 23 73 70 73h69v-680h-139zM238 816v-54h-88v88h55c22 0 33 -12 33 -34zM61 816v-54h-88v88h54c22 0 34 -12 34 -34z" />
    <glyph glyph-name="afii10062" unicode="&#x40e;" horiz-adv-x="703" 
d="M164 102h37c70 0 96 32 76 97l-222 481h148l149 -362l142 319c9 29 30 43 61 43h93l-259 -575c-28 -83 -63 -108 -170 -111c-31 0 -50 1 -55 4v104zM352 785c44 0 62 25 62 65h55c-1 -74 -39 -112 -115 -112c-77 0 -117 38 -120 112h57c0 -41 15 -65 61 -65z" />
    <glyph glyph-name="Acyrillic" unicode="&#x410;" horiz-adv-x="714" 
d="M326 680h112l244 -680h-147l-45 139h-263l-45 -139h-149l227 635c10 30 32 45 66 45zM357 543l-93 -289h187z" />
    <glyph glyph-name="afii10018" unicode="&#x411;" horiz-adv-x="634" 
d="M180 123h160c81 0 121 29 121 88s-40 88 -121 88h-160v-176zM180 562v-146h162c172 0 258 -70 258 -209s-83 -208 -250 -207h-311v607c0 48 25 73 76 73h432v-118h-367z" />
    <glyph glyph-name="afii10019" unicode="&#x412;" horiz-adv-x="625" 
d="M596 207c0 -141 -101 -207 -248 -207h-309v607c0 40 31 73 70 73h250c128 0 213 -51 213 -172c0 -72 -29 -115 -82 -141c67 -26 106 -70 106 -160zM432 490c0 57 -39 72 -102 72h-150v-146h152c55 0 100 17 100 74zM449 211c0 70 -41 90 -113 90h-156v-178h158
c69 0 111 20 111 88z" />
    <glyph glyph-name="afii10020" unicode="&#x413;" horiz-adv-x="585" 
d="M39 0h141v562h367v118h-424c-55 0 -83 -26 -84 -78v-602z" />
    <glyph glyph-name="afii10021" unicode="&#x414;" horiz-adv-x="703" 
d="M62 117c86 170 98 313 98 563h363c59 0 88 -28 88 -84v-479h53v-244h-141v127h-363v-127h-140v244h42zM299 562c0 -189 -20 -336 -90 -445h262v445h-172z" />
    <glyph glyph-name="afii10022" unicode="&#x415;" horiz-adv-x="564" 
d="M39 0v607c0 47 23 72 70 73h422v-118h-355v-146h265v-45c1 -47 -23 -70 -72 -70h-193v-176h355v-125h-492z" />
    <glyph glyph-name="afii10024" unicode="&#x416;" horiz-adv-x="996" 
d="M428 275v-275h138v275c0 16 4 26 12 30c13 4 26 -4 39 -24l209 -281h170l-279 385l125 156c14 14 37 21 68 21h45v118h-98c-42 0 -72 -12 -93 -35l-198 -243v196c0 55 -28 82 -84 82h-54v-278l-198 243c-21 23 -51 35 -93 35h-98v-118h45c31 0 54 -7 68 -21l129 -156
l-283 -385h170l211 281c19 29 49 37 49 -6z" />
    <glyph glyph-name="afii10025" unicode="&#x417;" horiz-adv-x="552" 
d="M242 402c75 0 119 25 119 94c1 57 -29 86 -91 86s-95 -36 -98 -109h-72c-47 -1 -64 23 -51 72c29 98 104 146 226 146c148 1 224 -60 227 -185c3 -62 -25 -108 -84 -135c73 -26 109 -79 109 -160c0 -146 -85 -220 -257 -221c-171 0 -253 76 -245 227h135
c1 -77 38 -115 111 -114s110 34 110 102s-44 103 -133 104h-21v93h15z" />
    <glyph glyph-name="afii10026" unicode="&#x418;" horiz-adv-x="673" 
d="M615 607c0 39 -31 73 -70 73h-74l-278 -467v467h-136v-680h144l278 467v-467h136v607z" />
    <glyph glyph-name="afii10027" unicode="&#x419;" horiz-adv-x="673" 
d="M615 607c3 39 -32 73 -70 73h-74l-278 -467v467h-136v-680h144l278 467v-467h136v607zM400 834h59c3 -74 -37 -112 -119 -113c-81 1 -120 39 -119 113h58c-3 -38 17 -59 57 -63c43 -1 64 20 64 63z" />
    <glyph glyph-name="afii10028" unicode="&#x41a;" horiz-adv-x="625" 
d="M469 680h97v-118h-45c-31 0 -54 -7 -68 -21l-125 -156l279 -385h-169l-209 281c-13 20 -27 28 -40 24c-8 -4 -11 -14 -11 -30v-275h-139v680h55c56 0 84 -27 84 -82v-196l197 243c21 23 52 35 94 35z" />
    <glyph glyph-name="afii10029" unicode="&#x41b;" horiz-adv-x="664" 
d="M266 562v-484c-3 -52 -31 -78 -86 -78h-121v117h70v563h394c55 0 82 -26 82 -78v-602s1 0 -136 0v562h-203z" />
    <glyph glyph-name="afii10030" unicode="&#x41c;" horiz-adv-x="794" 
d="M55 607c0 40 32 73 70 73h135l136 -518l133 518h207v-680h-131v549l-138 -549h-143l-138 549v-549h-131v607z" />
    <glyph glyph-name="afii10031" unicode="&#x41d;" horiz-adv-x="625" 
d="M35 607c0 40 32 73 70 73h71v-254h279v254h141v-680h-141v301h-279v-301h-141v607z" />
    <glyph glyph-name="afii10032" unicode="&#x41e;" horiz-adv-x="712" 
d="M354 570c-127 0 -186 -98 -186 -230c0 -133 59 -233 186 -233s187 96 187 233c0 134 -60 230 -187 230zM354 -10c-207 0 -325 142 -325 350s123 351 325 351c203 0 326 -145 326 -351c0 -209 -119 -350 -326 -350z" />
    <glyph glyph-name="afii10033" unicode="&#x41f;" horiz-adv-x="677" 
d="M113 0h-54v680h476c55 0 83 -26 84 -78v-602h-139v562h-283v-484c-1 -52 -29 -78 -84 -78z" />
    <glyph glyph-name="afii10034" unicode="&#x420;" horiz-adv-x="582" 
d="M555 461c0 -134 -73 -219 -209 -219h-172v-242h-139v607c0 39 31 73 70 73h231c144 0 219 -77 219 -219zM176 365h135c70 -1 105 32 105 98s-33 99 -98 99h-142v-197z" />
    <glyph glyph-name="afii10035" unicode="&#x421;" horiz-adv-x="666" 
d="M637 236c-13 -157 -123 -246 -295 -246c-209 0 -313 138 -313 350c0 219 110 351 325 351c83 0 150 -20 201 -62c48 -43 75 -102 82 -176h-84c-30 0 -52 14 -65 41c-23 49 -68 74 -134 74c-129 0 -186 -91 -186 -228c0 -133 55 -227 182 -227c87 0 137 48 152 123h135z
" />
    <glyph glyph-name="afii10036" unicode="&#x422;" horiz-adv-x="605" 
d="M35 607c0 39 31 73 70 73h471v-121h-201v-559h-139v559h-201v48z" />
    <glyph glyph-name="afii10037" unicode="&#x423;" horiz-adv-x="703" 
d="M164 102h37c70 0 96 32 76 97l-222 481h148l149 -362l142 319c8 29 28 43 61 43h93l-259 -575c-30 -83 -64 -111 -170 -111c-33 0 -51 1 -55 4v104z" />
    <glyph glyph-name="afii10038" unicode="&#x424;" horiz-adv-x="937" 
d="M156 344c0 -89 81 -135 242 -139v281c-161 -7 -242 -53 -242 -142zM537 0h-139v90c-91 8 -172 29 -242 64c-160 93 -153 285 0 379c69 36 150 57 242 61v86h53c57 0 86 -29 86 -88c91 -4 174 -24 248 -59c82 -39 122 -100 121 -185c-3 -177 -186 -242 -369 -256v-92z
M779 344c0 89 -81 135 -242 142v-281c161 4 242 50 242 139z" />
    <glyph glyph-name="afii10039" unicode="&#x425;" horiz-adv-x="648" 
d="M504 680h121l-213 -332l213 -348h-162l-139 236l-138 -236h-161l213 348l-213 332h161l138 -239l119 204c12 23 32 35 61 35z" />
    <glyph glyph-name="afii10040" unicode="&#x426;" horiz-adv-x="722" 
d="M684 125h-67v477c-3 52 -31 78 -84 78h-56v-555h-278v555h-140v-680h484v-168h141v293z" />
    <glyph glyph-name="afii10041" unicode="&#x427;" horiz-adv-x="566" 
d="M395 408v272h132v-680h-66c-44 0 -66 22 -66 66v159c-68 -78 -151 -100 -250 -65c-70 27 -106 98 -106 213v307h133v-272c0 -88 29 -141 109 -144c79 -3 114 62 114 144z" />
    <glyph glyph-name="afii10042" unicode="&#x428;" horiz-adv-x="957" 
d="M900 0v602c-1 52 -29 78 -84 78h-54v-553h-213v553h-143v-555h-207v555h-140v-680h841z" />
    <glyph glyph-name="afii10043" unicode="&#x429;" horiz-adv-x="976" 
d="M900 127v475c-1 52 -29 78 -84 78h-54v-553h-213v553h-143v-555h-207v555h-140v-680h746v-168h140v295h-45z" />
    <glyph glyph-name="afii10044" unicode="&#x42a;" horiz-adv-x="722" 
d="M332 123v178h109c68 1 102 -27 102 -86s-34 -89 -102 -92h-109zM195 562v-562h243c169 0 253 72 253 215s-84 215 -253 215h-106v177c0 48 -25 73 -76 73h-217v-118h156z" />
    <glyph glyph-name="afii10045" unicode="&#x42b;" horiz-adv-x="761" 
d="M176 123v178h109c68 3 102 -26 102 -86c0 -57 -34 -88 -102 -92h-109zM39 680v-680h242c169 0 254 72 254 215s-85 215 -254 215h-105v177c0 48 -25 73 -76 73h-61zM658 680c37 0 65 -28 65 -65v-615h-133v680h68z" />
    <glyph glyph-name="afii10046" unicode="&#x42c;" horiz-adv-x="576" 
d="M176 123v178h109c68 1 102 -27 102 -86s-34 -89 -102 -92h-109zM39 680v-680h242c169 0 254 72 254 215s-85 215 -254 215h-105v177c0 48 -25 73 -76 73h-61z" />
    <glyph glyph-name="afii10047" unicode="&#x42d;" horiz-adv-x="669" 
d="M504 410c-12 97 -79 158 -180 158c-66 1 -112 -23 -135 -74c-12 -27 -33 -41 -64 -41h-84c16 152 116 238 283 238c215 0 324 -131 324 -351c0 -212 -101 -347 -312 -350c-172 0 -279 89 -295 246h135c15 -73 66 -123 152 -123c105 0 163 67 178 164h-252v69
c0 37 27 64 64 64h186z" />
    <glyph glyph-name="afii10048" unicode="&#x42e;" horiz-adv-x="996" 
d="M639 570c-126 0 -186 -98 -186 -228c0 -133 58 -235 186 -235s187 96 187 235c0 134 -61 228 -187 228zM320 426c27 154 147 265 319 265c203 0 326 -145 326 -351c0 -209 -119 -350 -326 -350c-193 0 -312 126 -323 311h-140v-301h-141v607c0 39 31 73 70 73h71v-254
h144z" />
    <glyph glyph-name="afii10049" unicode="&#x42f;" horiz-adv-x="615" 
d="M29 486c0 -86 37 -142 102 -160c-29 -10 -51 -26 -65 -47c-12 -23 -18 -57 -21 -101l-6 -133c-1 -21 -8 -36 -21 -45h152c7 13 11 27 12 41c3 10 5 49 6 115c5 82 19 108 101 108h149v-264h138v607c0 40 -30 70 -70 73h-258c-141 0 -219 -54 -219 -194zM170 473
c0 62 34 89 96 89h172v-179h-165c-66 0 -103 24 -103 90z" />
    <glyph glyph-name="acyrillic" unicode="&#x430;" horiz-adv-x="498" 
d="M221 98c75 0 119 44 119 119v49c-31 -13 -67 -24 -106 -32c-52 -10 -79 -35 -80 -74c4 -42 27 -62 67 -62zM246 537c146 0 220 -48 223 -146v-180c0 -146 -87 -211 -231 -221c-127 -10 -215 50 -215 166c6 128 93 161 229 174c59 8 87 26 86 53c-3 31 -31 46 -86 45
c-46 1 -72 -11 -80 -37h-133c16 98 85 146 207 146z" />
    <glyph glyph-name="afii10066" unicode="&#x431;" horiz-adv-x="546" 
d="M375 242c0 96 -34 144 -102 143c-70 0 -106 -49 -107 -147c4 -94 39 -139 105 -138c69 1 104 48 104 142zM271 492c161 0 243 -82 243 -246c4 -169 -78 -254 -243 -254c-160 0 -241 83 -242 250c-4 159 10 265 41 320c39 74 120 114 244 118c25 0 38 7 38 23h136
c-3 -94 -43 -140 -121 -137c-112 4 -181 -4 -185 -84c27 7 56 10 89 10z" />
    <glyph glyph-name="afii10067" unicode="&#x432;" horiz-adv-x="498" 
d="M469 160c0 -109 -78 -160 -192 -160h-238v475c0 30 25 57 55 54h193c100 2 166 -40 166 -133c0 -55 -24 -88 -64 -109c52 -21 80 -56 80 -127zM336 375c0 40 -26 51 -70 49h-112v-98h114c38 -2 68 10 68 49zM350 166c3 50 -30 65 -80 63h-116v-124h117c48 0 82 13 79 61z
" />
    <glyph glyph-name="afii10068" unicode="&#x433;" horiz-adv-x="488" 
d="M39 0h129v412h281v117h-326c-53 0 -81 -26 -84 -78v-451z" />
    <glyph glyph-name="afii10069" unicode="&#x434;" horiz-adv-x="585" 
d="M53 92c64 131 76 249 76 437h312c47 1 70 -20 69 -64v-373h37v-190h-127v98h-272v-98h-128v190h33zM248 412c0 -96 -18 -165 -39 -243c-9 -33 -17 -59 -25 -77h197v320h-133z" />
    <glyph glyph-name="afii10070" unicode="&#x435;" 
d="M502 162c-29 -112 -101 -174 -231 -174c-160 5 -240 98 -240 278s81 270 242 271c168 0 247 -103 237 -310h-342c5 -81 40 -122 105 -122c31 0 60 13 86 38c12 13 27 19 45 19h98zM271 428c-57 0 -91 -36 -101 -106h199c-8 70 -41 106 -98 106z" />
    <glyph glyph-name="afii10072" unicode="&#x436;" horiz-adv-x="769" 
d="M322 207v-207h129v207c0 6 9 7 14 2l166 -209h156l-240 301l99 119c12 10 24 15 36 12h58v97h-78c-51 0 -74 -9 -98 -33l-115 -141v96c0 53 -27 79 -80 78h-47v-174l-115 141c-26 23 -46 33 -98 33h-78v-97h59c12 3 23 -2 35 -12l100 -119l-241 -301h157l168 209
c4 6 13 3 13 -2z" />
    <glyph glyph-name="afii10073" unicode="&#x437;" horiz-adv-x="488" 
d="M389 281c36 -18 70 -51 70 -119c0 -116 -73 -174 -219 -174c-132 -1 -200 54 -207 166h129c-4 -39 36 -70 82 -70c49 0 84 28 84 68c0 61 -49 80 -101 80h-34v69h26c65 0 92 22 92 72c0 38 -32 63 -71 63c-40 0 -68 -21 -68 -65v-14h-86c-18 0 -33 9 -33 22
c-4 5 -5 17 -4 35c20 81 84 120 195 119c129 1 194 -50 197 -154c0 -57 -25 -80 -52 -98z" />
    <glyph glyph-name="afii10074" unicode="&#x438;" horiz-adv-x="605" 
d="M547 451c-2 47 -26 78 -72 78h-45l-246 -318v318h-127v-529h134l229 295v-295h127v451z" />
    <glyph glyph-name="afii10075" unicode="&#x439;" horiz-adv-x="605" 
d="M547 451c-2 47 -26 78 -72 78h-45l-246 -318v318h-127v-529h134l229 295v-295h127v451zM305 615c44 0 62 25 62 65h55c-1 -73 -39 -111 -115 -112c-77 1 -116 39 -119 112h56c0 -41 15 -65 61 -65z" />
    <glyph glyph-name="afii10076" unicode="&#x43a;" horiz-adv-x="480" 
d="M31 0v529h47c55 1 81 -25 80 -78v-96l115 141c24 24 47 33 98 33h78v-97h-58c-12 3 -24 -2 -36 -12l-99 -121l240 -299h-156l-166 209c-5 5 -14 4 -14 -2v-207h-129z" />
    <glyph glyph-name="afii10077" unicode="&#x43b;" horiz-adv-x="664" 
d="M256 412v-334c-1 -52 -29 -78 -84 -78h-113v117h70v412h392c56 0 84 -26 84 -78v-451h-126v412h-223z" />
    <glyph glyph-name="afii10078" unicode="&#x43c;" horiz-adv-x="660" 
d="M55 473c0 31 24 56 54 56h106l115 -363l119 363h158v-529h-125v311l-95 -311h-112l-95 311v-311h-125v473z" />
    <glyph glyph-name="afii10079" unicode="&#x43d;" horiz-adv-x="546" 
d="M37 473c0 30 25 59 55 56h72v-197h217v197h127v-529h-127v236h-217v-236h-127v473z" />
    <glyph glyph-name="afii10080" unicode="&#x43e;" horiz-adv-x="541" 
d="M271 537c160 0 241 -91 241 -275c0 -182 -81 -274 -241 -274s-240 92 -240 274c0 184 80 275 240 275zM271 420c-70 0 -105 -53 -105 -158c1 -103 36 -155 104 -155s102 54 103 159c0 103 -34 154 -102 154z" />
    <glyph glyph-name="afii10081" unicode="&#x43f;" horiz-adv-x="595" 
d="M186 412v-334c-1 -52 -29 -78 -84 -78h-43v529h392c56 0 84 -26 84 -78v-451h-127v412h-222z" />
    <glyph glyph-name="afii10082" unicode="&#x440;" horiz-adv-x="556" 
d="M168 -141v213c34 -55 84 -82 150 -82c141 5 211 98 211 278c0 178 -82 267 -246 267c-159 0 -241 -78 -248 -236v-506h67c44 0 66 22 66 66zM281 109c-72 0 -109 51 -113 153c-1 107 35 160 111 160s114 -53 114 -160c-3 -102 -40 -153 -112 -153z" />
    <glyph glyph-name="afii10083" unicode="&#x441;" horiz-adv-x="533" 
d="M502 162c-24 -108 -102 -177 -225 -174c-160 0 -242 92 -246 274c0 181 81 272 244 275c128 0 204 -57 227 -172h-145c-16 36 -44 55 -86 55c-70 0 -105 -53 -105 -158s37 -158 111 -157c31 0 58 13 80 38c13 13 28 19 45 19h100z" />
    <glyph glyph-name="afii10084" unicode="&#x442;" horiz-adv-x="519" 
d="M37 457c0 41 32 75 70 72h373v-117h-152v-412h-139v412h-152v45z" />
    <glyph glyph-name="afii10085" unicode="&#x443;" horiz-adv-x="585" 
d="M109 -94h37c73 0 100 36 79 106l-180 517h150l106 -367l92 320c8 31 28 47 62 47h94l-209 -619c-32 -87 -64 -117 -174 -117c-34 0 -53 1 -57 4v109z" />
    <glyph glyph-name="afii10086" unicode="&#x444;" horiz-adv-x="902" 
d="M631 109c-72 0 -109 51 -113 153c-1 107 35 160 111 160s113 -53 113 -160c-3 -102 -39 -153 -111 -153zM271 420c72 0 110 -50 114 -152c1 -107 -36 -161 -112 -161s-113 54 -113 161c3 102 39 152 111 152zM385 -207h66c44 0 67 22 67 66v215c34 -55 84 -82 150 -82
c141 5 211 98 211 278c0 178 -73 267 -219 267c-68 -1 -115 -27 -142 -78v221h-67c-44 0 -66 -23 -66 -67v-156c-34 55 -85 82 -151 82c-141 -5 -211 -97 -211 -277c0 -178 83 -268 247 -268c46 0 84 26 115 78v-279z" />
    <glyph glyph-name="afii10087" unicode="&#x445;" horiz-adv-x="556" 
d="M439 576h122l-200 -306l176 -270h-160l-94 168l-95 -168h-163l172 271l-162 258h153l91 -160l102 172c12 23 31 35 58 35z" />
    <glyph glyph-name="afii10088" unicode="&#x446;" horiz-adv-x="644" 
d="M545 127v324c-1 52 -29 78 -84 78h-47v-402h-223v402h-132v-529h410v-168h133v295h-57z" />
    <glyph glyph-name="afii10089" unicode="&#x447;" horiz-adv-x="556" 
d="M172 408c0 -89 33 -146 109 -146c79 0 114 66 114 146v121h132v-529h-66c-44 0 -66 22 -66 66v159c-68 -78 -151 -100 -250 -65c-74 29 -110 100 -106 213v156h133v-121z" />
    <glyph glyph-name="afii10090" unicode="&#x448;" horiz-adv-x="771" 
d="M322 127h-129v402h-132v-529h654v451c-3 52 -31 78 -84 78h-47v-402h-129v402h-133v-402z" />
    <glyph glyph-name="afii10091" unicode="&#x449;" horiz-adv-x="820" 
d="M322 127h-129v402h-132v-529h578v-168h132v295h-56v324c-3 52 -31 78 -84 78h-47v-402h-129v402h-133v-402z" />
    <glyph glyph-name="afii10092" unicode="&#x44a;" horiz-adv-x="644" 
d="M465 186c0 -58 -42 -63 -102 -63h-31v123h31c57 0 102 -5 102 -60zM605 186c0 141 -95 181 -246 181h-27v90c0 49 -25 73 -76 72h-217v-119h156v-410h164c153 0 246 43 246 186z" />
    <glyph glyph-name="afii10093" unicode="&#x44b;" horiz-adv-x="679" 
d="M309 186c0 -58 -42 -63 -102 -63h-31v123h31c57 0 102 -5 102 -60zM449 186c0 141 -95 181 -246 181h-27v90c0 49 -25 73 -76 72h-61v-529h164c153 0 246 43 246 186zM576 529c36 3 65 -28 65 -64v-465h-133v529h68z" />
    <glyph glyph-name="afii10094" unicode="&#x44c;" horiz-adv-x="484" 
d="M309 186c0 -58 -42 -63 -102 -63h-31v123h31c57 0 102 -5 102 -60zM449 186c0 141 -95 181 -246 181h-27v90c0 49 -25 73 -76 72h-61v-529h164c153 0 246 43 246 186z" />
    <glyph glyph-name="afii10095" unicode="&#x44d;" 
d="M189 260c-3 31 23 57 53 54h133c-10 72 -45 107 -102 106c-42 0 -69 -19 -85 -55h-145c23 115 99 172 227 172c164 -1 245 -93 244 -275c-4 -182 -86 -274 -246 -274c-122 0 -201 65 -225 174h100c18 0 33 -6 45 -19c23 -25 50 -38 80 -38c59 0 93 33 105 98h-184v57z
" />
    <glyph glyph-name="afii10096" unicode="&#x44e;" horiz-adv-x="792" 
d="M514 420c-70 0 -106 -53 -106 -158c3 -102 38 -154 104 -155c68 0 102 54 103 159c0 104 -33 155 -101 154zM35 457c0 40 33 75 70 72h71v-201h101c18 138 98 208 237 209c160 -1 240 -93 240 -277c0 -181 -80 -272 -240 -272c-142 0 -221 72 -237 215h-101v-203h-141
v457z" />
    <glyph glyph-name="afii10097" unicode="&#x44f;" horiz-adv-x="498" 
d="M35 379c0 -66 27 -114 78 -127c-52 -14 -61 -50 -66 -115l-4 -102c-1 -17 -7 -28 -16 -35h123c15 40 12 39 14 121c3 34 9 57 18 67c12 10 31 16 60 17h102v-205h115v473c0 29 -24 54 -55 56h-199c-110 -2 -170 -40 -170 -150zM162 367c-2 45 29 57 67 57h115v-113h-110
c-40 0 -72 9 -72 56z" />
    <glyph glyph-name="afii10071" unicode="&#x451;" 
d="M502 162c-29 -112 -101 -174 -231 -174c-156 0 -236 93 -240 278c5 181 86 271 242 271c168 0 247 -103 237 -310h-342c5 -81 40 -122 105 -122c31 0 60 13 86 38c12 13 27 19 45 19h98zM271 428c-57 0 -91 -36 -101 -106h199c-8 70 -41 106 -98 106zM406 646v-54h-88v88
h55c22 0 33 -12 33 -34zM229 646v-54h-88v88h54c22 0 34 -12 34 -34z" />
    <glyph glyph-name="afii10101" unicode="&#x454;" 
d="M354 260c3 31 -23 57 -53 54h-133c10 72 45 107 102 106c42 0 69 -19 85 -55h145c-23 115 -99 172 -227 172c-164 -1 -245 -93 -244 -275c4 -182 86 -274 246 -274c122 0 201 65 225 174h-100c-18 0 -33 -6 -45 -19c-23 -25 -50 -38 -80 -38c-59 0 -93 33 -105 98h184v57
z" />
    <glyph glyph-name="afii10104" unicode="&#x457;" horiz-adv-x="208" 
d="M104 529c33 0 64 -31 64 -64v-465h-133v529h69zM236 646v-54h-88v88h55c22 0 33 -12 33 -34zM59 646v-54h-88v88h54c22 0 34 -12 34 -34z" />
    <glyph glyph-name="afii10110" unicode="&#x45e;" horiz-adv-x="585" 
d="M109 -94h37c74 0 101 36 79 106l-180 517h150l106 -367l92 320c8 31 28 47 62 47h94l-209 -619c-16 -44 -36 -75 -59 -92c-26 -17 -64 -25 -115 -25c-34 0 -53 1 -57 4v109zM301 615c44 0 62 25 62 65h55c-1 -73 -39 -111 -115 -112c-77 1 -116 39 -119 112h56
c0 -41 15 -65 61 -65z" />
    <glyph glyph-name="quotesinglbase" unicode="&#x201a;" horiz-adv-x="183" 
d="M78 105h70v-101c0 -80 -45 -117 -115 -129v21c0 10 9 22 29 32c23 13 36 31 36 54c0 12 -7 18 -20 18h-43v66c0 26 14 39 43 39z" />
    <glyph glyph-name="afii61352" unicode="&#x2116;" horiz-adv-x="1015" 
d="M57 607c0 39 31 73 70 73h74l278 -467v467h136v-680h-144l-278 467v-467h-136v607zM695 281v30c0 20 10 29 28 29h224v-59h-252zM820 693c96 0 145 -55 145 -164c0 -108 -49 -162 -145 -162c-95 0 -142 54 -142 162c0 109 47 164 142 164zM820 623c-42 0 -62 -32 -62 -94
c1 -61 22 -91 62 -91s61 31 61 93c0 61 -21 92 -61 92z" />
    <glyph glyph-name="bulletoperator" unicode="&#x2219;" horiz-adv-x="351" 
d="M176 225c-58 0 -108 50 -108 111c0 60 49 107 110 107c59 0 109 -50 109 -107c0 -59 -52 -111 -111 -111z" />
    <glyph glyph-name="radical" unicode="&#x221a;" horiz-adv-x="1000" 
d="M39 436l297 250l135 -485l406 670c17 34 44 51 80 51l-428 -922h-129l-160 500z" />
    <glyph glyph-name="blacksquare" unicode="&#x25a0;" horiz-adv-x="722" 
d="M139 449h447v-449h-447v449zM217 387c-13 0 -20 -1 -20 -2c0 -5 9 -8 26 -8c17 -4 25 -3 25 4c0 2 -3 5 -8 6l-21 6c-14 0 -22 -1 -22 -2c6 -2 10 -4 20 -4zM258 363c0 8 -11 12 -33 12c-23 4 -33 2 -28 -6c0 -8 11 -12 32 -12c20 -4 29 -2 29 6zM266 330
c0 14 -13 22 -36 22c-27 1 -38 -4 -33 -16c0 -12 12 -19 37 -20c21 0 32 5 32 14zM234 311c-29 0 -41 -10 -37 -28c0 -20 14 -29 43 -29c25 -4 37 3 37 23c-4 17 -18 29 -43 34zM236 242c-30 0 -43 -13 -39 -39c3 -26 19 -39 49 -39c27 0 40 13 37 39c-4 26 -20 39 -47 39z
M242 148c-34 0 -49 -14 -45 -43c0 -30 17 -44 51 -44c30 0 45 14 45 44c-4 29 -21 43 -51 43zM373 334c6 0 35 -25 41 -33c0 -8 -41 25 -41 33zM246 387c2 -2 5 -5 8 -6c0 -7 7 -11 23 -12c-9 0 -13 -1 -13 -4c4 -9 13 -14 29 -17c18 -8 27 -8 27 0c-4 4 -13 9 -29 17
c8 -4 12 -4 12 0c4 4 -5 8 -26 12h14c-9 2 -15 4 -25 8zM334 359h-2v4c-8 1 -12 2 -18 8l-21 4c5 -3 9 -6 16 -6c-4 -4 1 -8 17 -15l24 -6c0 3 -1 4 -4 4h4c1 -2 1 -4 5 -4c0 -4 30 -21 36 -24c8 0 2 6 -18 16c-4 0 -10 1 -10 6c-4 4 -7 6 -11 6c-8 2 -12 4 -18 7zM436 279
c0 -8 25 -35 33 -43c1 1 -3 10 -12 24c-13 13 -20 19 -21 19zM412 311v-4c5 -9 27 -30 33 -30c1 -2 1 -4 2 -6c10 -10 10 -9 16 -15h1c-3 4 -8 8 -13 15c-10 8 -13 15 -19 24v-4h-1c-1 0 -1 1 -1 4l-16 16c-8 6 -12 8 -19 13c6 -6 8 -7 17 -13zM510 174c-5 7 -7 11 -10 17
h-1c-1 0 -1 1 -1 2c-1 2 -1 4 -2 6h2c0 3 -4 11 -12 24c-10 10 -11 14 -15 25v-6c-2 6 -5 9 -8 12c2 -8 16 -31 19 -31c0 -2 3 -12 6 -12c-1 1 -1 3 -2 4c-9 0 20 -47 20 -47v6c3 -12 6 -18 10 -18c-4 5 -6 8 -6 18zM520 117v1c1 -4 3 -8 5 -11c0 0 0 1 -4 22
c-2 8 -3 12 -5 19c0 0 0 1 0 -3l-12 23c0 -8 1 -17 2 -27c7 -16 11 -24 14 -24zM525 72c0 -6 1 -7 2 -11c3 0 4 7 4 21l-6 23s0 1 0 -4c-1 5 -3 6 -5 6c-3 0 -4 -7 -4 -23c0 -10 2 -16 5 -23c3 0 4 3 4 11zM389 102c0 -27 9 -41 29 -41c20 -4 29 7 29 33c0 46 -58 66 -58 8z
M500 117c-5 5 -8 -2 -8 -23c4 -21 8 -32 12 -33c10 -7 13 1 8 23c0 18 -4 29 -12 33zM373 328c-7 5 -31 24 -45 24h-2c0 -7 8 -14 24 -22s23 -9 23 -2zM344 318c0 -8 9 -17 27 -27c17 -12 25 -12 25 0c-5 13 -13 22 -25 27c-18 10 -27 10 -27 0zM480 217l-17 19
c-13 -18 49 -89 17 -19zM486 148c32 -79 13 51 -4 34c-5 -5 -4 -17 4 -34zM430 193c-12 22 -25 31 -39 24c-31 -19 8 -82 35 -69c17 9 18 24 4 45zM275 334c0 -12 12 -20 34 -27c23 -8 33 -7 29 5c0 10 -11 20 -33 28c-20 5 -30 3 -30 -6zM320 297c-22 7 -33 0 -33 -18
c3 -17 16 -28 39 -35c21 -8 31 -2 31 18c-4 16 -16 27 -37 35zM332 232c-27 3 -39 -8 -35 -33c1 -25 15 -38 41 -41c23 -4 35 7 35 33c-4 23 -18 37 -41 41zM303 105c0 -30 14 -44 41 -44c26 -4 39 9 39 39c0 27 -14 42 -43 46c-25 0 -37 -14 -37 -41zM453 100
c0 -38 35 -61 35 -12c0 41 -35 64 -35 12zM475 180c-12 20 -21 26 -28 19c-12 -8 -12 -20 0 -37c10 -22 20 -29 28 -21c9 1 9 14 0 39zM451 242c-13 13 -22 19 -27 18c-24 -24 76 -94 27 -18zM438 262c20 15 -85 76 -24 15c10 -16 19 -20 24 -15zM406 266
c-16 16 -29 20 -39 13c-12 -8 -8 -19 10 -35c13 -18 25 -23 37 -15c10 3 8 15 -8 37z" />
    <glyph glyph-name="glyph1" horiz-adv-x="0" 
 />
    <glyph glyph-name="glyph2" horiz-adv-x="1000" 
 />
    <glyph glyph-name="glyph55" horiz-adv-x="498" 
d="M221 98c74 0 119 44 119 119v49c-31 -13 -67 -24 -106 -32c-53 -10 -80 -35 -80 -74c3 -42 25 -62 67 -62zM252 428c-47 0 -73 -12 -80 -37h-133c16 98 85 146 207 146c146 0 220 -48 223 -146v-180c0 -146 -88 -211 -231 -221c-127 -10 -215 49 -215 166
c3 127 95 161 229 174c57 7 86 24 86 53c-3 30 -31 45 -86 45zM375 680l-111 -114h-67l49 92c8 16 22 23 43 22h86z" />
    <glyph glyph-name="glyph56" horiz-adv-x="496" 
d="M213 680c21 0 35 -8 43 -22l49 -92h-67l-111 114h86zM221 98c74 0 119 44 119 119v49c-31 -13 -67 -24 -106 -32c-53 -10 -80 -35 -80 -74c3 -42 25 -62 67 -62zM252 428c-47 0 -73 -12 -80 -37h-133c16 98 85 146 207 146c146 0 220 -48 223 -146v-180
c0 -146 -88 -211 -231 -221c-127 -10 -215 49 -215 166c3 127 95 161 229 174c57 7 86 24 86 53c-3 30 -31 45 -86 45z" />
    <glyph glyph-name="glyph57" horiz-adv-x="498" 
d="M221 98c74 0 119 44 119 119v49c-31 -13 -67 -24 -106 -32c-53 -10 -80 -35 -80 -74c3 -42 25 -62 67 -62zM252 428c-47 0 -73 -12 -80 -37h-133c16 98 85 146 207 146c146 0 220 -48 223 -146v-180c0 -146 -88 -211 -231 -221c-127 -10 -215 49 -215 166
c3 127 95 161 229 174c57 7 86 24 86 53c-3 30 -31 45 -86 45zM154 572h-47l65 74c20 27 44 42 74 42c26 0 51 -15 74 -42l61 -74h-78l-61 67l-39 -45c-14 -14 -23 -22 -49 -22z" />
    <glyph glyph-name="glyph58" horiz-adv-x="498" 
d="M221 98c74 0 119 44 119 119v49c-31 -13 -67 -24 -106 -32c-53 -10 -80 -35 -80 -74c3 -42 25 -62 67 -62zM252 428c-47 0 -73 -12 -80 -37h-133c16 98 85 146 207 146c146 0 220 -48 223 -146v-180c0 -146 -88 -211 -231 -221c-127 -10 -215 49 -215 166
c3 127 95 161 229 174c57 7 86 24 86 53c-3 30 -31 45 -86 45zM123 637c0 20 10 35 31 45c39 12 84 -12 113 -22c41 -14 73 -24 102 10c0 -50 5 -80 -37 -88c-66 -14 -167 85 -209 2v53z" />
    <glyph glyph-name="glyph59" horiz-adv-x="498" 
d="M221 98c74 0 119 44 119 119v49c-31 -13 -67 -24 -106 -32c-53 -10 -80 -35 -80 -74c3 -42 25 -62 67 -62zM252 428c-47 0 -73 -12 -80 -37h-133c16 98 85 146 207 146c146 0 220 -48 223 -146v-180c0 -146 -88 -211 -231 -221c-127 -10 -215 49 -215 166
c3 127 95 161 229 174c57 7 86 24 86 53c-3 30 -31 45 -86 45zM379 646v-54h-88v88h55c22 0 33 -12 33 -34zM201 646v-54h-88v88h55c22 0 33 -12 33 -34z" />
    <glyph glyph-name="glyph60" horiz-adv-x="498" 
d="M221 98c74 0 119 44 119 119v49c-31 -13 -67 -24 -106 -32c-53 -10 -80 -35 -80 -74c3 -42 25 -62 67 -62zM252 428c-47 0 -73 -12 -80 -37h-133c16 98 85 146 207 146c146 0 220 -48 223 -146v-180c0 -146 -88 -211 -231 -221c-127 -10 -215 49 -215 166
c3 127 95 161 229 174c57 7 86 24 86 53c-3 30 -31 45 -86 45zM252 715c48 0 74 -24 78 -72c-3 -51 -29 -77 -80 -77s-77 26 -78 77c3 48 29 72 80 72zM250 678c-25 0 -37 -12 -37 -37s12 -37 37 -37s37 12 37 37s-12 37 -37 37z" />
    <glyph glyph-name="glyph61" horiz-adv-x="554" 
d="M90 -94h37c73 0 99 36 78 106l-180 517h151l105 -367l92 320c8 31 29 47 63 47h93l-209 -619c-32 -87 -64 -117 -174 -117c-34 0 -52 1 -56 4v109zM410 646v-54h-88v88h55c22 0 33 -12 33 -34zM232 646v-54h-87v88h54c22 0 33 -12 33 -34z" />
    <glyph glyph-name="glyph62" horiz-adv-x="554" 
d="M420 680l-111 -114h-67l49 92c8 13 21 21 41 22h88zM90 -94h37c73 0 99 36 78 106l-180 517h151l105 -367l92 320c8 31 29 47 63 47h93l-209 -619c-32 -87 -64 -117 -174 -117c-34 0 -52 1 -56 4v109z" />
    <glyph glyph-name="glyph63" 
d="M410 680l-111 -114h-67l49 92c8 16 21 23 41 22h88zM502 162c-29 -112 -101 -174 -231 -174c-156 0 -236 93 -240 278c5 181 86 271 242 271c168 0 247 -103 237 -310h-342c5 -81 40 -122 105 -122c31 0 60 13 86 38c12 13 27 19 45 19h98zM271 428
c-57 0 -91 -36 -101 -106h199c-8 70 -41 106 -98 106z" />
    <glyph glyph-name="glyph64" 
d="M242 680c20 0 33 -8 41 -22l51 -92h-68l-110 114h86zM502 162c-29 -112 -101 -174 -231 -174c-156 0 -236 93 -240 278c5 181 86 271 242 271c168 0 247 -103 237 -310h-342c5 -81 40 -122 105 -122c31 0 60 13 86 38c12 13 27 19 45 19h98zM271 428
c-57 0 -91 -36 -101 -106h199c-8 70 -41 106 -98 106z" />
    <glyph glyph-name="glyph65" 
d="M502 162c-29 -112 -101 -174 -231 -174c-156 0 -236 93 -240 278c5 181 86 271 242 271c168 0 247 -103 237 -310h-342c5 -81 40 -122 105 -122c31 0 60 13 86 38c12 13 27 19 45 19h98zM271 428c-57 0 -91 -36 -101 -106h199c-8 70 -41 106 -98 106zM182 572h-47l64 74
c20 27 44 42 74 42c26 0 52 -15 75 -42l60 -74h-78l-60 67l-40 -45c-14 -14 -22 -22 -48 -22z" />
    <glyph glyph-name="glyph66" 
d="M502 162c-29 -112 -101 -174 -231 -174c-156 0 -236 93 -240 278c5 181 86 271 242 271c168 0 247 -103 237 -310h-342c5 -81 40 -122 105 -122c31 0 60 13 86 38c12 13 27 19 45 19h98zM271 428c-57 0 -91 -36 -101 -106h199c-8 70 -41 106 -98 106zM406 646v-54h-88v88
h55c22 0 33 -12 33 -34zM229 646v-54h-88v88h54c22 0 34 -12 34 -34z" />
    <glyph glyph-name="glyph67" horiz-adv-x="208" 
d="M236 680l-111 -114h-66l48 92c8 13 21 21 41 22h88zM35 529h69c43 0 64 -21 64 -64v-465h-133v529z" />
    <glyph glyph-name="glyph68" horiz-adv-x="208" 
d="M31 680c20 0 33 -8 41 -22l51 -92h-68l-108 114h84zM35 529h69c43 0 64 -21 64 -64v-465h-133v529z" />
    <glyph glyph-name="glyph69" horiz-adv-x="208" 
d="M35 529h69c43 0 64 -21 64 -64v-465h-133v529zM12 572h-47l64 74c20 27 45 42 75 42c26 0 51 -15 74 -42l60 -74h-78l-60 67l-39 -45c-14 -14 -23 -22 -49 -22z" />
    <glyph glyph-name="glyph70" horiz-adv-x="208" 
d="M104 529c33 0 64 -31 64 -64v-465h-133v529h69zM236 646v-54h-88v88h55c22 0 33 -12 33 -34zM59 646v-54h-88v88h54c22 0 34 -12 34 -34z" />
    <glyph glyph-name="glyph71" horiz-adv-x="511" 
d="M262 430c-52 0 -92 -35 -92 -90v-340h-135v311c0 159 84 223 223 226c57 1 110 -13 158 -43s72 -91 72 -183v-311h-70c-37 0 -66 28 -66 66v274c0 54 -40 90 -90 90zM139 637c0 20 10 35 31 45c39 12 83 -12 112 -22c41 -14 74 -24 103 10c0 -50 5 -80 -37 -88
c-66 -14 -167 85 -209 2v53z" />
    <glyph glyph-name="glyph72" horiz-adv-x="541" 
d="M398 680l-111 -114h-66l49 92c8 13 21 21 41 22h87zM271 537c160 0 241 -91 241 -275c0 -182 -81 -274 -241 -274s-240 92 -240 274c0 184 80 275 240 275zM271 420c-70 0 -105 -53 -105 -158c1 -103 36 -155 104 -155s102 54 103 159c0 103 -34 154 -102 154z" />
    <glyph glyph-name="glyph73" horiz-adv-x="541" 
d="M246 680c20 0 33 -8 41 -22l51 -92h-67l-111 114h86zM271 537c160 0 241 -91 241 -275c0 -182 -81 -274 -241 -274s-240 92 -240 274c0 184 80 275 240 275zM271 420c-70 0 -105 -53 -105 -158c1 -103 36 -155 104 -155s102 54 103 159c0 103 -34 154 -102 154z" />
    <glyph glyph-name="glyph74" horiz-adv-x="541" 
d="M271 537c160 0 241 -91 241 -275c0 -182 -81 -274 -241 -274s-240 92 -240 274c0 184 80 275 240 275zM271 420c-70 0 -105 -53 -105 -158c1 -103 36 -155 104 -155s102 54 103 159c0 103 -34 154 -102 154zM182 572h-47l64 74c20 27 44 42 74 42c26 0 52 -15 75 -42
l60 -74h-78l-60 67l-40 -45c-14 -14 -22 -22 -48 -22z" />
    <glyph glyph-name="glyph75" horiz-adv-x="541" 
d="M271 537c160 0 241 -91 241 -275c0 -182 -81 -274 -241 -274s-240 92 -240 274c0 184 80 275 240 275zM271 420c-70 0 -105 -53 -105 -158c1 -103 36 -155 104 -155s102 54 103 159c0 103 -34 154 -102 154zM150 637c0 20 11 35 32 45c39 12 83 -12 112 -22
c41 -14 73 -24 102 10c0 -50 5 -80 -37 -88c-66 -14 -167 85 -209 2v53z" />
    <glyph glyph-name="glyph76" horiz-adv-x="541" 
d="M271 537c160 0 241 -91 241 -275c0 -182 -81 -274 -241 -274s-240 92 -240 274c0 184 80 275 240 275zM271 420c-70 0 -105 -53 -105 -158c1 -103 36 -155 104 -155s102 54 103 159c0 103 -34 154 -102 154zM404 646v-54h-88v88h55c22 0 33 -12 33 -34zM227 646v-54h-88
v88h54c22 0 34 -12 34 -34z" />
    <glyph glyph-name="glyph77" horiz-adv-x="511" 
d="M156 174c3 -58 45 -78 110 -78c56 0 84 16 84 50c0 27 -46 49 -137 65c-117 21 -177 73 -178 156c0 114 90 168 211 170c68 0 122 -15 162 -45c39 -31 60 -74 63 -129h-84c-31 1 -51 12 -59 33c-9 23 -36 36 -80 36c-52 0 -78 -14 -78 -41s34 -48 103 -61
c90 -18 149 -41 178 -68c25 -26 37 -58 37 -94c0 -130 -102 -178 -242 -178c-74 0 -130 16 -166 47c-40 30 -60 76 -60 137h136zM160 680h-47l65 -69c20 -27 44 -41 74 -41c26 0 51 14 74 41l61 69h-78l-61 -61l-39 39c-14 14 -23 22 -49 22z" />
    <glyph glyph-name="glyph78" horiz-adv-x="503" 
d="M307 680h88l-112 -114h-68l51 92c8 14 21 22 41 22zM480 529v-318c0 -91 -23 -151 -70 -180c-47 -27 -99 -41 -156 -41c-55 0 -104 15 -150 45c-46 29 -69 87 -69 176v318h133v-345c0 -59 30 -88 90 -88s90 29 90 88v279c-1 44 20 66 64 66h68z" />
    <glyph glyph-name="glyph79" horiz-adv-x="503" 
d="M223 680c20 0 33 -8 41 -22l48 -92h-66l-111 114h88zM480 529v-318c0 -91 -23 -151 -70 -180c-47 -27 -99 -41 -156 -41c-55 0 -104 15 -150 45c-46 29 -69 87 -69 176v318h133v-345c0 -59 30 -88 90 -88s90 29 90 88v279c-1 44 20 66 64 66h68z" />
    <glyph glyph-name="glyph80" horiz-adv-x="503" 
d="M480 529v-318c0 -91 -23 -151 -70 -180c-47 -27 -99 -41 -156 -41c-55 0 -104 15 -150 45c-46 29 -69 87 -69 176v318h133v-345c0 -59 30 -88 90 -88s90 29 90 88v279c-1 44 20 66 64 66h68zM170 572h-47l65 74c20 27 44 42 74 42c26 0 51 -15 74 -42l60 -74h-78l-60 67
l-39 -45c-14 -14 -23 -22 -49 -22z" />
    <glyph glyph-name="glyph81" horiz-adv-x="503" 
d="M480 529v-318c0 -91 -23 -151 -70 -180c-47 -27 -99 -41 -156 -41c-55 0 -104 15 -150 45c-46 29 -69 87 -69 176v318h133v-345c0 -59 30 -88 90 -88s90 29 90 88v279c-1 44 20 66 64 66h68zM391 646v-54h-88v88h54c22 0 34 -12 34 -34zM213 646v-54h-88v88h55
c22 0 33 -12 33 -34z" />
    <glyph glyph-name="glyph82" horiz-adv-x="515" 
d="M119 418c-39 0 -68 29 -68 68v43h433v-113l-281 -301h289v-115h-457v105l283 313h-199zM283 572c-29 0 -53 14 -74 41l-64 75h48c17 0 33 -8 47 -22l41 -45l59 67h80l-63 -75c-22 -27 -47 -41 -74 -41z" />
    <glyph glyph-name="glyph84" horiz-adv-x="197" 
d="M146 496l24 -428c3 -47 -21 -69 -70 -68h-65l22 496h89zM168 598c0 -26 -24 -49 -49 -49h-84v131h133v-82z" />
    <glyph glyph-name="glyph85" horiz-adv-x="564" 
d="M514 115h25v-115h-25c-51 0 -90 7 -116 21c-42 -21 -89 -31 -144 -31c-16 0 -44 4 -86 12v-178h-68c-43 -1 -65 21 -65 65v640h133v-345c0 -59 30 -88 90 -88s90 29 90 88v279c0 42 21 63 64 66h68v-379c1 -23 13 -35 34 -35z" />
    <glyph glyph-name="glyph86" horiz-adv-x="373" 
d="M574 504h-70v101c0 80 45 117 115 129v-21c0 -10 -9 -21 -29 -31c-23 -13 -35 -32 -35 -55c0 -12 6 -18 19 -18h43v-66c0 -26 -14 -39 -43 -39zM752 504h-70v101c0 80 45 117 115 129v-21c0 -10 -9 -21 -29 -31c-23 -13 -36 -32 -36 -55c0 -12 7 -18 20 -18h43v-66
c0 -26 -14 -39 -43 -39z" />
    <glyph glyph-name="glyph87" horiz-adv-x="345" 
d="M199 281c0 29 13 53 39 74l74 63v-47c0 -25 -9 -32 -21 -47l-45 -41l66 -58v-77l-74 61c-26 22 -39 46 -39 72zM137 371c0 -25 -10 -32 -22 -47l-45 -41l67 -58v-77l-75 61c-26 22 -39 46 -39 72c0 29 13 53 39 74l75 63v-47z" />
    <glyph glyph-name="glyph88" horiz-adv-x="371" 
d="M158 281c0 29 -13 53 -39 74l-74 63v-47c0 -25 9 -32 21 -47l45 -41l-66 -58v-77l74 61c26 22 39 46 39 72zM334 281c0 29 -13 53 -39 74l-74 63v-47c0 -25 9 -32 21 -47l45 -41l-66 -58v-77l74 61c26 22 39 46 39 72z" />
    <glyph glyph-name="glyph94" horiz-adv-x="142" 
d="M68 680h57v-82c0 -63 -34 -94 -92 -104v18c0 12 25 25 37 37c7 8 11 19 14 33c0 8 -6 12 -16 12h-33v54c0 21 11 32 33 32z" />
    <glyph glyph-name="glyph96" horiz-adv-x="494" 
d="M35 221v43c0 27 13 41 39 41h125v166h45c26 0 39 -14 39 -41v-125h166v-84h-166v-166h-84v166h-164z" />
    <glyph glyph-name="glyph98" horiz-adv-x="449" 
d="M55 227v46c0 17 8 26 25 26h316v-72h-341z" />
    <glyph glyph-name="glyph104" horiz-adv-x="332" 
d="M146 680c21 0 35 -8 43 -22l49 -92h-66l-111 114h85z" />
    <glyph glyph-name="glyph105" horiz-adv-x="408" 
d="M111 574h-47l65 74c20 27 44 41 74 41c26 0 51 -14 74 -41l61 -74h-78l-61 67l-39 -45c-14 -14 -23 -22 -49 -22z" />
    <glyph glyph-name="glyph106" horiz-adv-x="404" 
d="M80 625c0 94 148 16 200 12c18 -1 34 6 48 23c0 -49 5 -82 -37 -90c-69 -15 -164 85 -211 2v53z" />
    <glyph glyph-name="glyph107" horiz-adv-x="410" 
d="M336 646v-54h-88v88h55c22 0 33 -12 33 -34zM158 646v-54h-88v88h55c22 0 33 -12 33 -34z" />
    <glyph glyph-name="glyph108" horiz-adv-x="470" 
d="M35 305h338c30 0 36 -19 49 -37l27 -47h-414v84zM223 189c38 0 56 -18 56 -54c0 -38 -18 -57 -56 -57c-36 0 -55 19 -55 57c0 36 19 54 55 54zM168 391c0 29 25 54 55 54s56 -25 56 -54c0 -38 -18 -57 -56 -57c-36 0 -55 19 -55 57z" />
    <glyph glyph-name="glyph109" horiz-adv-x="412" 
d="M35 295v47c0 18 9 27 26 27h316v-74h-342zM35 156v47c0 18 9 27 26 27h316v-74h-342z" />
    <glyph glyph-name="glyph110" horiz-adv-x="404" 
d="M35 330c0 14 11 22 26 22h99v130h65c18 0 27 -9 27 -27v-103h125v-77h-125v-130h-92v130h-125v55zM35 43v39c0 17 9 25 26 25h316v-64h-342z" />
    <glyph glyph-name="glyph111" horiz-adv-x="568" 
d="M88 498c0 118 97 193 219 193c123 0 194 -65 209 -177l-69 -10c-36 -5 -60 6 -70 35c-16 33 -41 49 -76 49c-59 0 -87 -29 -86 -88c0 -13 3 -35 10 -68h105c35 0 53 -19 53 -57v-29h-135c7 -23 10 -41 10 -51h72c36 0 54 -18 53 -53v-33h-133c-9 -26 -30 -56 -61 -90
c39 13 84 12 135 -4c26 -8 50 -11 72 -10c22 0 54 10 96 28l51 -112c-73 -35 -148 -37 -238 -11c-51 16 -86 22 -106 19c-39 0 -77 -13 -115 -39l-49 112c43 31 72 67 88 107h-88v86h94c-1 13 -5 30 -10 51h-84v86h61c-5 21 -8 43 -8 66z" />
    <glyph glyph-name="glyph112" horiz-adv-x="667" 
d="M412 0h-141v229h-183v85h148l-29 51h-119v86h70l-133 229h172l145 -293l115 252c12 27 33 41 64 41h116l-121 -229h39c39 0 57 -18 56 -56v-30h-140l-26 -49h110c38 0 56 -19 56 -58v-29h-199v-229z" />
    <glyph glyph-name="glyph113" horiz-adv-x="574" 
d="M290 545c49 0 93 -16 132 -47l60 61l30 -30l-61 -62c31 -38 47 -81 47 -130s-16 -92 -47 -130l61 -61l-30 -31l-60 61c-39 -31 -83 -47 -132 -47s-92 16 -130 47l-60 -61l-32 31l61 61c-31 38 -47 81 -47 130s16 92 47 130l-61 62l32 30l60 -61c38 31 81 47 130 47z
M125 336c0 -89 75 -164 164 -164c90 0 164 73 164 164c0 92 -72 164 -164 164c-91 0 -164 -74 -164 -164z" />
    <glyph glyph-name="glyph114" horiz-adv-x="523" 
d="M172 6c-93 36 -143 126 -143 256c0 161 85 275 242 275c21 0 37 -1 49 -4l22 78h51l-26 -90c80 -27 121 -85 131 -183h-131c-4 35 -15 58 -35 68l-88 -301c76 -4 117 28 125 94h131c-9 -147 -112 -222 -281 -203l-28 -103h-50zM270 426c-78 0 -104 -78 -104 -164
c3 -74 16 -119 41 -135l86 297c-5 1 -13 2 -23 2z" />
    <glyph glyph-name="glyph129" horiz-adv-x="619" 
d="M29 277c0 30 19 53 55 67l506 209v-76c0 -16 -16 -33 -29 -39l-362 -147c-13 -9 -13 -17 0 -25l391 -159v-103l-508 207c-35 16 -53 37 -53 66z" />
    <glyph glyph-name="glyph130" horiz-adv-x="625" 
d="M35 477v76l506 -209c34 -14 52 -37 55 -67c0 -30 -19 -52 -55 -66l-506 -207v103l391 159c10 8 10 16 0 25l-362 147c-17 6 -29 21 -29 39z" />
    <glyph glyph-name="glyph132" horiz-adv-x="791" 
d="M391 725c116 0 193 -45 259 -108c57 -61 104 -148 104 -256c0 -169 -109 -288 -227 -334c-47 -18 -92 -27 -136 -27c-49 0 -96 9 -139 29c-82 30 -168 118 -197 198c-17 40 -26 85 -26 134c0 35 5 68 14 98c21 95 94 177 168 221c52 30 112 45 180 45zM469 264
c0 46 -16 62 -61 62h-88v-156h-82v359c0 29 14 43 43 43h153c82 0 128 -33 128 -115c0 -49 -22 -84 -60 -94c39 -14 46 -37 51 -88l2 -46c0 -28 0 -49 15 -59h-91c-4 5 -7 13 -8 25c0 12 -1 21 -2 26v43zM480 449c0 35 -21 53 -58 53h-102v-106h98c41 0 62 16 62 53z
M391 664c-95 0 -160 -35 -209 -86c-50 -45 -94 -129 -94 -215c0 -89 40 -165 88 -211c51 -53 121 -91 215 -91c89 0 165 41 213 89c46 39 89 121 89 207c0 40 -7 81 -21 120c-14 35 -36 67 -65 97c-31 30 -64 53 -99 69c-38 14 -77 21 -117 21z" />
    <glyph glyph-name="glyph133" horiz-adv-x="791" 
d="M391 664c-139 0 -239 -85 -280 -185c-16 -38 -23 -77 -23 -116c0 -42 7 -80 23 -115c16 -40 38 -73 67 -98c49 -51 121 -89 213 -89c142 0 234 84 281 185c14 38 21 77 21 117c0 139 -85 233 -185 280c-39 14 -78 21 -117 21zM572 295c-5 -97 -80 -156 -183 -156
c-131 0 -198 86 -198 220c0 136 69 219 204 219c105 0 172 -52 177 -148h-52c-21 0 -35 8 -40 25c-8 13 -14 22 -21 29c-16 12 -37 18 -64 18c-82 0 -116 -57 -116 -143c0 -83 34 -142 114 -142c55 0 87 30 95 78h84zM391 725c52 0 98 -10 138 -28c44 -18 84 -44 119 -78
c61 -65 106 -147 106 -258c0 -171 -107 -283 -227 -334c-47 -18 -92 -27 -136 -27c-165 0 -290 107 -334 225c-18 42 -28 87 -28 136c0 52 10 99 28 139c16 40 42 80 78 119c33 33 71 59 117 80c40 17 87 26 139 26z" />
    <glyph glyph-name="glyph134" horiz-adv-x="351" 
d="M174 277c-30 0 -59 31 -59 63s28 58 61 58c31 0 60 -26 60 -58c0 -34 -29 -63 -62 -63z" />
    <glyph glyph-name="glyph137" horiz-adv-x="554" 
d="M469 680h21l-394 -680h-71l377 652c14 26 31 28 67 28zM414 291c-36 0 -55 -23 -55 -70h-39c-21 0 -28 13 -23 39c12 59 52 88 121 88c74 0 113 -38 117 -114c0 -25 -6 -43 -19 -56c-12 -20 -47 -48 -106 -86c-14 -13 -23 -25 -27 -35h150v-57h-248c3 30 12 57 26 80
c29 55 91 83 138 119c9 9 15 22 16 39c1 35 -16 53 -51 53zM47 621c37 0 66 27 76 61h20c23 0 35 -12 35 -37v-307h-69v228h-62v55z" />
    <glyph glyph-name="glyph138" horiz-adv-x="558" 
d="M469 680h21l-394 -680h-71l377 652c14 26 31 28 67 28zM402 0v72h-150v65l133 205h47c26 0 39 -12 39 -37v-172h41v-61h-41v-72h-69zM402 129v152l-93 -152h93zM47 621c37 0 66 27 76 61h20c23 0 35 -12 35 -37v-307h-69v228h-62v55z" />
    <glyph glyph-name="glyph139" horiz-adv-x="574" 
d="M520 680h21l-395 -680h-70l377 652c14 26 31 28 67 28zM123 535c37 0 63 12 63 47c1 29 -14 43 -46 43s-49 -19 -50 -57h-37c-22 -1 -30 12 -22 39c12 49 50 75 112 75c73 1 110 -30 113 -94c0 -33 -14 -55 -43 -68c36 -12 55 -39 55 -79c0 -74 -44 -111 -131 -111
c-86 0 -125 38 -117 115h64c0 -40 19 -60 55 -60s54 18 54 54c0 31 -22 47 -66 47h-12v49h8zM441 0v72h-150v65l133 205h47c26 0 39 -12 39 -37v-172h41v-61h-41v-72h-69zM441 129v152l-93 -152h93z" />
    <glyph glyph-name="glyph140" horiz-adv-x="279" 
d="M35 -197v935h233v-97h-110v-739h110v-50c0 -30 -16 -46 -47 -49h-186z" />
    <glyph glyph-name="glyph141" horiz-adv-x="279" 
d="M25 691c0 26 19 47 47 47h186v-935h-233v99h108v739h-108v50z" />
    <glyph glyph-name="glyph142" horiz-adv-x="1074" 
d="M514 141h-264l-90 -141h-148l433 635c21 30 48 45 82 45h481v-118h-358v-146h266v-45c0 -43 -23 -66 -70 -70h-196v-176h373v-125h-509v141zM514 254v289l-190 -289h190z" />
    <glyph glyph-name="glyph143" horiz-adv-x="1052" 
d="M180 336c0 -136 53 -231 183 -231h149v463h-145c-134 0 -187 -90 -187 -232zM355 -18c-215 0 -318 138 -318 354c0 269 160 386 444 352c44 -5 85 -9 124 -12h399v-119h-356v-145h266v-45c0 -39 -33 -70 -72 -70h-194v-174h372v-123h-508c-46 -13 -99 -18 -157 -18z" />
    <glyph glyph-name="glyph144" horiz-adv-x="484" 
d="M35 670c49 0 111 6 111 -49v-101c18 8 53 12 104 15c132 3 196 -63 195 -198s-66 -202 -195 -202c-49 0 -84 5 -104 15v-101c0 -53 -63 -49 -111 -49v670zM242 445c-66 0 -99 -36 -100 -109s32 -109 99 -109s101 36 101 109s-34 109 -100 109z" />
    <glyph glyph-name="glyph145" horiz-adv-x="484" 
d="M35 670c49 0 111 6 111 -49v-101c18 8 53 12 104 15c132 3 196 -63 195 -198s-66 -202 -195 -202c-49 0 -84 5 -104 15v-101c0 -53 -63 -49 -111 -49v670zM242 445c-66 0 -99 -36 -100 -109s32 -109 99 -109s101 36 101 109s-34 109 -100 109z" />
    <glyph glyph-name="glyph146" horiz-adv-x="554" 
d="M35 -18v497c0 133 69 200 207 201h76c126 3 190 -50 190 -155c0 -60 -24 -101 -72 -123c60 -21 90 -68 93 -142c3 -122 -70 -184 -220 -184h-96v110h86c66 0 99 26 99 78s-33 78 -99 78h-86v103h82c59 0 88 23 88 67s-30 65 -90 62h-35c-70 -3 -106 -37 -106 -103v-489
h-117z" />
    <glyph glyph-name="glyph147" horiz-adv-x="839" 
d="M223 90c71 0 118 44 115 115v47c-46 -20 -141 -36 -168 -59c-9 -9 -14 -23 -14 -43c0 -38 27 -58 67 -60zM475 215c2 -72 31 -115 99 -115c34 0 60 11 76 31c13 16 29 23 49 23h96c-27 -97 -106 -164 -227 -164c-68 0 -120 21 -158 61c-54 -44 -143 -61 -230 -61
c-102 0 -151 56 -151 156c0 130 104 154 223 166c56 7 84 24 84 51c0 36 -40 43 -84 43c-42 0 -65 -10 -78 -35h-129c12 96 91 139 203 139c69 0 122 -12 160 -35c1 -3 6 -7 14 -12c39 31 87 47 144 47c156 0 235 -101 235 -260v-35h-326zM666 301c-5 65 -34 101 -96 101
c-27 0 -50 -9 -68 -27c-17 -20 -26 -44 -27 -74h191z" />
    <glyph glyph-name="glyph148" horiz-adv-x="867" 
d="M498 215c2 -74 28 -115 100 -115c22 0 40 3 54 11c7 7 30 27 37 34c9 5 21 7 34 7h95c-25 -99 -106 -162 -228 -162c-68 0 -122 23 -164 67c-26 -30 -59 -49 -98 -57c-138 -43 -251 38 -283 137c-12 36 -17 75 -16 117c0 74 26 145 63 185c31 36 73 59 125 67
c51 5 96 1 138 -12c29 -12 54 -28 75 -49c39 43 93 65 162 65c155 -3 237 -100 234 -262c1 -10 1 -21 -2 -33h-326zM691 301c-5 61 -37 102 -97 99c-26 1 -49 -7 -67 -25c-16 -18 -25 -43 -29 -74h193zM195 375c-27 -29 -40 -72 -37 -131c1 -57 11 -96 31 -117
c14 -22 58 -36 98 -25c54 14 72 69 76 150c0 88 -34 169 -129 144c-18 -4 -31 -11 -39 -21z" />
    <glyph glyph-name="glyph149" horiz-adv-x="343" 
d="M47 281v30c0 20 9 29 27 29h223v-59h-250zM154 430c44 0 73 24 73 70v29c-37 -13 -112 -17 -112 -62c1 -25 14 -37 39 -37zM174 625c-27 0 -43 -7 -47 -21h-78c8 59 48 87 121 87c87 0 132 -28 133 -87v-108c0 -86 -54 -124 -137 -131c-75 -6 -127 29 -127 100
c0 77 56 94 135 103c34 4 51 15 51 32c-1 17 -18 25 -51 25z" />
    <glyph glyph-name="glyph150" horiz-adv-x="347" 
d="M172 693c48 0 74 -24 78 -72c-3 -51 -29 -76 -80 -76s-77 25 -78 76c3 48 29 72 80 72zM170 656c-25 0 -37 -12 -37 -37s12 -37 37 -37s37 12 37 37s-12 37 -37 37z" />
    <glyph glyph-name="glyph151" horiz-adv-x="347" 
d="M47 281v30c0 20 9 29 27 29h225v-59h-252zM172 693c96 0 144 -55 144 -164c0 -108 -48 -162 -144 -162c-95 0 -143 54 -143 162c0 109 48 164 143 164zM172 623c-42 0 -63 -32 -63 -94c1 -61 23 -91 63 -91s60 31 60 93c0 61 -20 92 -60 92z" />
    <glyph glyph-name="glyph152" horiz-adv-x="197" 
d="M35 635c35 0 62 26 72 56h20c21 0 31 -11 31 -33v-289h-64v215h-59v51z" />
    <glyph glyph-name="glyph153" horiz-adv-x="292" 
d="M154 645c-35 0 -52 -23 -52 -67h-36c-21 0 -28 12 -23 37c12 55 50 82 115 82c70 0 107 -35 110 -105c0 -23 -6 -42 -18 -55c-10 -17 -44 -44 -100 -80c-13 -12 -21 -23 -25 -33h141v-53h-233c3 62 40 110 82 139c33 18 84 40 88 86c1 33 -15 49 -49 49z" />
    <glyph glyph-name="glyph154" horiz-adv-x="292" 
d="M133 561c34 0 58 11 58 43c1 27 -13 41 -43 41s-45 -18 -46 -53h-36c-22 -1 -29 11 -21 37c12 46 46 68 105 68c70 1 107 -28 110 -88c0 -30 -14 -51 -43 -64c34 -12 51 -36 51 -74c0 -69 -41 -104 -122 -104s-118 36 -113 108h63c0 -38 16 -57 51 -57s52 17 52 51
c0 31 -20 47 -62 47h-12v45h8z" />
    <glyph glyph-name="glyph155" horiz-adv-x="464" 
d="M244 -96c-108 0 -171 41 -191 123c61 4 103 -6 125 -31c13 -13 33 -18 62 -17c78 0 104 55 51 103c-67 56 -120 92 -189 145c-49 39 -74 82 -73 130c0 60 29 104 86 133c-42 31 -58 73 -49 125c18 73 73 110 163 110s148 -40 175 -118h-52c-27 0 -46 7 -55 20
c-13 17 -36 25 -67 25c-43 0 -65 -18 -68 -54c0 -16 6 -29 18 -41c13 -13 55 -43 125 -89s112 -84 125 -111c18 -36 17 -79 -4 -130c-10 -23 -34 -48 -72 -71l15 -13c34 -29 50 -63 49 -102c-8 -91 -66 -137 -174 -137zM137 369c0 -26 12 -47 37 -64l125 -88l33 37
c16 18 16 39 0 62c-8 12 -58 52 -152 118c-29 -17 -43 -39 -43 -65z" />
    <glyph glyph-name="glyph156" horiz-adv-x="501" 
d="M318 484c0 -105 -13 -127 -80 -183c-32 -26 -74 -63 -74 -117c0 -44 29 -68 88 -71c62 0 96 34 103 102c70 0 125 15 125 -57c-17 -108 -94 -162 -232 -162c-146 0 -219 64 -219 192c0 39 11 72 32 101c18 22 53 58 105 109c17 16 26 39 29 69v17h123zM273 545h-85v135
h136v-84c0 -34 -17 -51 -51 -51z" />
    <glyph glyph-name="glyph157" horiz-adv-x="458" 
d="M31 516c0 99 80 158 178 158h229v-37c0 -18 -10 -28 -28 -28h-27v-570c0 -26 -12 -39 -37 -39h-34v609h-41v-609h-72v355c-96 7 -168 62 -168 161z" />
    <glyph glyph-name="glyph159" 
d="M217 -4c-122 26 -184 115 -182 258c4 137 59 219 166 248c42 10 81 13 119 6c-16 23 -31 41 -47 53l-99 -51l-33 51l72 39c-27 18 -69 26 -53 68l16 45c36 -16 77 -39 121 -70l76 41c23 10 43 3 59 -20l9 -16l-89 -44c102 -91 155 -209 160 -352
c0 -131 -61 -232 -166 -252c-43 -12 -86 -13 -129 -4zM275 400c-70 0 -105 -51 -105 -154c1 -100 35 -150 103 -150s103 51 104 154c0 100 -34 150 -102 150z" />
    <glyph glyph-name="glyph160" horiz-adv-x="716" 
d="M326 680h112l244 -680h-147l-45 139h-263l-45 -139h-149l227 635c10 30 32 45 66 45zM357 543l-93 -289h187zM512 850l-112 -114h-66l49 92c8 16 22 23 43 22h86z" />
    <glyph glyph-name="glyph161" horiz-adv-x="716" 
d="M326 680h112l244 -680h-147l-45 139h-263l-45 -139h-149l227 635c10 30 32 45 66 45zM357 543l-93 -289h187zM232 850l112 -114h66l-49 92c-8 16 -22 23 -43 22h-86z" />
    <glyph glyph-name="glyph162" horiz-adv-x="716" 
d="M326 680h112l244 -680h-147l-45 139h-263l-45 -139h-149l227 635c10 30 32 45 66 45zM357 543l-93 -289h187zM270 736h-47l64 75c20 27 44 41 74 41c26 0 52 -14 75 -41l60 -75h-78l-61 67l-39 -45c-14 -14 -22 -22 -48 -22z" />
    <glyph glyph-name="glyph163" horiz-adv-x="716" 
d="M326 680h112l244 -680h-147l-45 139h-263l-45 -139h-149l227 635c10 30 32 45 66 45zM357 543l-93 -289h187zM234 807c0 94 149 15 201 11c18 -1 33 7 47 24c0 -49 5 -82 -37 -90c-69 -15 -164 85 -211 2v53z" />
    <glyph glyph-name="glyph164" horiz-adv-x="716" 
d="M326 680h112l244 -680h-147l-45 139h-263l-45 -139h-149l227 635c10 30 32 45 66 45zM357 543l-93 -289h187zM488 816v-54h-88v88h55c22 0 33 -12 33 -34zM311 816v-54h-88v88h54c22 0 34 -12 34 -34z" />
    <glyph glyph-name="glyph165" horiz-adv-x="716" 
d="M359 859c48 0 75 -24 79 -72c-3 -51 -30 -76 -81 -76s-77 25 -78 76c3 48 29 72 80 72zM357 822c-25 0 -37 -12 -37 -37s12 -37 37 -37s38 12 38 37s-13 37 -38 37zM326 680h112l244 -680h-147l-45 139h-263l-45 -139h-149l227 635c10 30 32 45 66 45zM357 543l-93 -289
h187z" />
    <glyph glyph-name="glyph166" horiz-adv-x="552" 
d="M35 0v607c0 47 23 72 70 73h422v-118h-355v-146h266v-45c1 -47 -24 -70 -73 -70h-193v-176h355v-125h-492zM162 850l111 -114h67l-49 92c-8 16 -22 23 -43 22h-86z" />
    <glyph glyph-name="glyph167" horiz-adv-x="552" 
d="M35 0v607c0 47 23 72 70 73h422v-118h-355v-146h266v-45c1 -47 -24 -70 -73 -70h-193v-176h355v-125h-492zM441 850l-111 -114h-66l48 92c8 16 22 23 43 22h86z" />
    <glyph glyph-name="glyph168" horiz-adv-x="552" 
d="M35 0v607c0 47 23 72 70 73h422v-118h-355v-146h266v-45c1 -47 -24 -70 -73 -70h-193v-176h355v-125h-492zM207 736h-47l65 75c20 27 44 41 74 41c26 0 51 -14 74 -41l61 -75h-79l-60 67l-39 -45c-14 -14 -23 -22 -49 -22z" />
    <glyph glyph-name="glyph169" horiz-adv-x="552" 
d="M35 0v607c0 47 23 72 70 73h422v-118h-355v-146h266v-45c1 -47 -24 -70 -73 -70h-193v-176h355v-125h-492zM414 816v-54h-88v88h55c22 0 33 -12 33 -34zM236 816v-54h-88v88h55c22 0 33 -12 33 -34z" />
    <glyph glyph-name="glyph170" horiz-adv-x="208" 
d="M35 0v607c0 48 23 73 70 73h69v-680h-139zM-37 850l111 -114h67l-49 92c-8 16 -22 23 -43 22h-86z" />
    <glyph glyph-name="glyph171" horiz-adv-x="208" 
d="M35 0v607c0 48 23 73 70 73h69v-680h-139zM258 850l-112 -114h-66l49 92c8 16 22 23 43 22h86z" />
    <glyph glyph-name="glyph172" horiz-adv-x="208" 
d="M14 736h-45l60 75c20 27 45 41 76 41c29 0 54 -14 75 -41l62 -75h-80l-58 67l-43 -45c-14 -14 -21 -22 -47 -22zM35 0v607c0 48 23 73 70 73h69v-680h-139z" />
    <glyph glyph-name="glyph173" horiz-adv-x="208" 
d="M35 0v607c0 48 23 73 70 73h69v-680h-139zM238 816v-54h-88v88h55c22 0 33 -12 33 -34zM61 816v-54h-88v88h54c22 0 34 -12 34 -34z" />
    <glyph glyph-name="glyph174" horiz-adv-x="685" 
d="M344 680c216 0 310 -120 310 -340c0 -62 -9 -117 -29 -164c-46 -124 -142 -176 -318 -176h-229v295h-111v90h111v222c0 48 23 73 70 73h196zM512 340c0 136 -42 221 -168 221h-129v-176h78c42 0 62 -21 59 -61v-29h-137v-172h111c138 0 186 74 186 217z" />
    <glyph glyph-name="glyph175" horiz-adv-x="623" 
d="M35 0v607c0 48 23 73 70 73h75l277 -467v467h137v-680h-145l-277 467v-467h-137zM186 807c0 94 148 15 200 11c18 -1 34 7 48 24c0 -49 4 -82 -38 -90c-69 -15 -163 85 -210 2v53z" />
    <glyph glyph-name="glyph176" horiz-adv-x="712" 
d="M354 570c-127 0 -186 -98 -186 -230c0 -133 59 -233 186 -233s187 96 187 233c0 134 -60 230 -187 230zM354 -10c-207 0 -325 142 -325 350s122 351 325 351s326 -145 326 -351c0 -209 -119 -350 -326 -350zM484 850l-111 -114h-66l48 92c8 16 22 23 43 22h86z" />
    <glyph glyph-name="glyph177" horiz-adv-x="712" 
d="M354 570c-127 0 -186 -98 -186 -230c0 -133 59 -233 186 -233s187 96 187 233c0 134 -60 230 -187 230zM354 -10c-207 0 -325 142 -325 350s122 351 325 351s326 -145 326 -351c0 -209 -119 -350 -326 -350zM193 850l112 -114h66l-49 92c-8 16 -22 23 -43 22h-86z" />
    <glyph glyph-name="glyph178" horiz-adv-x="712" 
d="M354 570c-127 0 -186 -98 -186 -230c0 -133 59 -233 186 -233s187 96 187 233c0 134 -60 230 -187 230zM354 -10c-207 0 -325 142 -325 350s122 351 325 351s326 -145 326 -351c0 -209 -119 -350 -326 -350zM264 736h-47l64 75c20 27 44 41 74 41c26 0 52 -14 75 -41
l60 -75h-78l-60 67l-40 -45c-14 -14 -22 -22 -48 -22z" />
    <glyph glyph-name="glyph179" horiz-adv-x="712" 
d="M354 570c-127 0 -186 -98 -186 -230c0 -133 59 -233 186 -233s187 96 187 233c0 134 -60 230 -187 230zM354 -10c-207 0 -325 142 -325 350s122 351 325 351s326 -145 326 -351c0 -209 -119 -350 -326 -350zM229 807c0 94 148 15 200 11c18 -1 34 7 48 24
c0 -49 4 -82 -38 -90c-69 -15 -163 85 -210 2v53z" />
    <glyph glyph-name="glyph180" horiz-adv-x="712" 
d="M354 570c-127 0 -186 -98 -186 -230c0 -133 59 -233 186 -233s187 96 187 233c0 134 -60 230 -187 230zM354 -10c-207 0 -325 142 -325 350s122 351 325 351s326 -145 326 -351c0 -209 -119 -350 -326 -350zM484 816v-54h-88v88h55c22 0 33 -12 33 -34zM307 816v-54h-88
v88h54c22 0 34 -12 34 -34z" />
    <glyph glyph-name="glyph181" horiz-adv-x="552" 
d="M402 412h118l-165 -201l172 -209h-156l-94 129l-93 -129h-159l170 211l-160 199h151l89 -125l71 98c10 18 29 27 56 27z" />
    <glyph glyph-name="glyph182" horiz-adv-x="623" 
d="M320 105c89 0 132 28 131 84c0 33 -20 55 -62 67c-40 12 -86 24 -135 37c-133 34 -199 96 -199 186c3 143 88 213 256 212c160 0 243 -70 251 -211h-78c-29 0 -49 14 -62 40c-23 39 -64 58 -123 58c-72 -1 -108 -28 -111 -80c0 -43 43 -74 132 -94
c51 -12 105 -27 162 -47c76 -26 112 -82 108 -168c-8 -133 -98 -199 -270 -199c-180 0 -271 75 -275 223h135c5 -72 51 -108 140 -108zM217 850h-47l64 -75c20 -27 45 -41 75 -41c26 0 51 14 74 41l60 75h-78l-60 -67l-39 45c-14 14 -23 22 -49 22z" />
    <glyph glyph-name="glyph183" horiz-adv-x="697" 
d="M680 340c0 -209 -119 -350 -326 -350c-86 0 -156 23 -209 67l-43 -51h-77l80 92c-51 60 -76 140 -76 242c0 208 121 349 325 349c85 0 154 -22 210 -68l43 51h77l-80 -90c51 -62 76 -143 76 -242zM354 107c127 0 187 96 187 233c0 53 -9 100 -27 139l-284 -325
c31 -31 73 -47 124 -47zM354 570c-127 0 -186 -98 -186 -230c0 -56 9 -103 29 -139l282 324c-33 30 -74 45 -125 45z" />
    <glyph glyph-name="glyph184" horiz-adv-x="554" 
d="M521 266c0 -78 -16 -140 -50 -186c-30 -43 -70 -70 -119 -80c-86 -25 -180 1 -229 41l-35 -41h-76l72 84c-33 49 -49 111 -49 184c4 148 69 236 195 265c55 8 104 4 147 -12c23 -10 43 -22 59 -35l35 39h76l-72 -82c31 -52 46 -111 46 -177zM352 391
c-22 23 -50 33 -81 29c-55 -4 -87 -43 -97 -117c-5 -39 -3 -76 6 -110zM387 266c0 27 -3 50 -8 68c-58 -66 -115 -133 -174 -199c39 -58 124 -41 158 15c16 26 24 65 24 116z" />
    <glyph glyph-name="glyph185" horiz-adv-x="603" 
d="M174 680v-420c0 -99 44 -149 131 -150s131 50 131 150v420h138v-436c-3 -169 -92 -254 -269 -254s-267 85 -270 254v363c-3 48 21 73 70 73h69zM436 850l-112 -114h-66l49 92c8 16 22 23 43 22h86z" />
    <glyph glyph-name="glyph186" horiz-adv-x="603" 
d="M174 680v-420c0 -99 44 -149 131 -150s131 50 131 150v420h138v-436c-3 -169 -92 -254 -269 -254s-267 85 -270 254v363c-3 48 21 73 70 73h69zM174 850l111 -114h67l-49 92c-8 16 -22 23 -43 22h-86z" />
    <glyph glyph-name="glyph187" horiz-adv-x="603" 
d="M174 680v-420c0 -99 44 -149 131 -150s131 50 131 150v420h138v-436c-3 -169 -92 -254 -269 -254s-267 85 -270 254v363c-3 48 21 73 70 73h69zM213 736h-47l64 75c20 27 45 41 75 41c26 0 51 -14 74 -41l60 -75h-78l-60 67l-39 -45c-14 -14 -23 -22 -49 -22z" />
    <glyph glyph-name="glyph188" horiz-adv-x="603" 
d="M174 680v-420c0 -99 44 -149 131 -150s131 50 131 150v420h138v-436c-3 -169 -92 -254 -269 -254s-267 85 -270 254v363c-3 48 21 73 70 73h69zM436 816v-54h-88v88h54c22 0 34 -12 34 -34zM258 816v-54h-88v88h55c22 0 33 -12 33 -34z" />
    <glyph glyph-name="glyph189" horiz-adv-x="667" 
d="M412 0h-141v254l-246 426h172l145 -293l115 252c12 27 33 41 64 41h116l-225 -426v-254zM494 850l-111 -114h-67l49 92c8 16 22 23 43 22h86z" />
    <glyph glyph-name="glyph190" horiz-adv-x="667" 
d="M412 0h-141v254l-246 426h172l145 -293l115 252c12 27 33 41 64 41h116l-225 -426v-254zM469 816v-54h-88v88h55c22 0 33 -12 33 -34zM291 816v-54h-88v88h55c22 0 33 -12 33 -34z" />
    <glyph glyph-name="glyph191" horiz-adv-x="601" 
d="M119 418c-39 0 -68 29 -68 68v43h433v-113l-281 -301h289v-115h-457v105l283 313h-199zM193 680h-47l65 -69c20 -27 44 -41 74 -41c26 0 51 14 74 41l61 69h-78l-61 -61l-39 39c-14 14 -23 22 -49 22z" />
    <glyph glyph-name="glyph192" horiz-adv-x="669" 
d="M639 236c-8 -156 -126 -246 -297 -246c-211 0 -313 138 -313 350c0 222 109 351 326 351c169 0 271 -84 284 -238h-84c-30 0 -52 14 -65 41c-21 46 -66 74 -135 74c-131 0 -185 -91 -185 -228c0 -132 54 -229 180 -229c86 0 139 50 154 125h135zM463 -100
c0 -71 -130 -16 -158 -6c-45 16 -81 11 -100 -27v61c1 21 13 37 35 49c77 24 168 -85 223 -10v-67z" />
    <glyph glyph-name="glyph193" 
d="M406 -100c0 -71 -130 -16 -158 -6c-45 16 -81 11 -100 -27v61c1 21 14 37 36 49c77 24 167 -85 222 -10v-67zM502 162c-24 -108 -102 -177 -225 -174c-160 0 -242 92 -246 274c0 181 81 272 244 275c128 0 204 -57 227 -172h-145c-16 36 -44 55 -86 55
c-70 0 -105 -53 -105 -158s37 -158 111 -157c31 0 58 13 80 38c13 13 28 19 45 19h100z" />
    <glyph glyph-name="glyph197" horiz-adv-x="568" 
d="M289 -12c-142 0 -220 94 -246 221h-84v86h70c-3 23 -4 41 -4 53h-66v91h64c21 147 105 254 264 254c69 0 125 -20 168 -62c39 -44 61 -104 68 -178h-70c-25 0 -45 10 -62 31c-18 49 -53 76 -104 80c-76 7 -119 -37 -129 -132h104c31 0 47 -16 47 -47v-39h-155
c-1 -16 -1 -31 2 -47h108c29 0 44 -16 45 -49v-41h-127c33 -89 125 -124 191 -51c21 21 37 47 49 78h113c-12 -146 -91 -248 -246 -248z" />
    <glyph glyph-name="glyph199" horiz-adv-x="386" 
d="M78 105h70v-101c0 -80 -45 -117 -115 -129v21c0 10 9 22 29 32c23 13 36 31 36 54c0 12 -7 18 -20 18h-43v66c0 26 14 39 43 39zM273 105h71v-101c0 -80 -45 -117 -115 -129v21c0 10 9 22 29 32c23 13 35 31 35 54c0 12 -7 18 -20 18h-43v66c0 26 14 39 43 39z" />
    <glyph glyph-name="glyph200" horiz-adv-x="580" 
d="M78 105h70v-105h-113v66c0 26 14 39 43 39zM273 105h71v-105h-114v66c0 26 14 39 43 39zM469 105h70v-105h-113v66c0 26 14 39 43 39z" />
    <glyph glyph-name="glyph201" horiz-adv-x="720" 
d="M395 189h195c36 0 55 -20 55 -62v-16h-250v-367h-79v367h-230v78h230v196h-228v78h228v162c0 36 21 55 63 55h16v-217h195c36 0 55 -21 55 -63v-15h-250v-196z" />
    <glyph glyph-name="glyph202" horiz-adv-x="720" 
d="M395 385v-641h-79v641h-228v78h228v162c0 36 21 55 63 55h16v-217h195c36 0 55 -21 55 -63v-15h-250z" />
    <glyph glyph-name="glyph203" horiz-adv-x="408" 
d="M111 574h-47l65 74c20 27 44 41 74 41c26 0 51 -14 74 -41l61 -74h-78l-61 67l-39 -45c-14 -14 -23 -22 -49 -22z" />
    <glyph glyph-name="glyph204" horiz-adv-x="283" 
d="M252 465c0 -36 -30 -67 -66 -67h-18v-459c0 -141 -60 -205 -180 -195c-86 0 -121 59 -107 176c10 -70 43 -99 98 -86c42 10 60 51 56 123v586c-5 101 54 141 153 141c23 0 44 -1 64 -4v-110h-35c-31 0 -48 -13 -51 -39v-35h86v-31z" />
    <glyph glyph-name="glyph205" horiz-adv-x="955" 
d="M516 680h62l-400 -690h-114l385 662c14 26 31 28 67 28zM160 668c76 0 113 -53 113 -160c1 -105 -37 -158 -114 -158s-115 53 -114 160c1 105 39 158 115 158zM160 617c-34 0 -51 -35 -51 -107c-1 -73 15 -110 50 -110s51 36 50 108c0 73 -16 109 -49 109zM494 332
c76 0 113 -53 113 -160c1 -105 -37 -158 -114 -158s-115 53 -114 160c1 105 39 158 115 158zM494 281c-34 0 -51 -35 -51 -107c-1 -73 15 -110 50 -110s51 36 50 108c0 73 -16 109 -49 109zM766 332c76 0 113 -53 113 -160c1 -105 -37 -158 -114 -158s-116 53 -115 160
c1 105 40 158 116 158zM766 281c-34 0 -51 -35 -51 -107c-1 -73 15 -110 50 -110s50 36 49 108c0 73 -15 109 -48 109z" />
    <glyph glyph-name="glyph206" horiz-adv-x="255" 
d="M176 371c0 -25 -10 -32 -22 -47l-45 -41l67 -58v-77l-74 61c-26 22 -40 46 -40 72c0 29 14 53 40 74l74 63v-47z" />
    <glyph glyph-name="glyph207" horiz-adv-x="255" 
d="M182 281c0 29 -13 53 -39 74l-75 63v-47c0 -25 10 -32 22 -47l45 -41l-67 -58v-77l75 61c26 22 39 46 39 72z" />
    <glyph glyph-name="glyph208" horiz-adv-x="601" 
d="M113 557c-39 0 -72 33 -72 72v51h533v-118l-371 -439h363v-123h-531v119l369 438h-291zM217 850h-47l64 -75c20 -27 45 -41 75 -41c26 0 51 14 74 41l60 75h-78l-60 -67l-39 45c-14 14 -23 22 -49 22z" />
    <glyph glyph-name="glyph209" horiz-adv-x="183" 
d="M105 453h-70v102c0 80 45 117 115 129v-22c0 -10 -9 -21 -29 -31c-23 -13 -35 -32 -35 -55c0 -12 6 -17 19 -17h43v-67c0 -26 -14 -39 -43 -39z" />
    <glyph glyph-name="glyph210" horiz-adv-x="183" 
d="M78 680h70v-102c0 -80 -45 -117 -115 -129v22c0 10 9 21 29 31c23 13 36 32 36 55c0 12 -7 17 -20 17h-43v67c0 26 14 39 43 39z" />
    <glyph glyph-name="glyph211" horiz-adv-x="373" 
d="M105 451h-70v102c0 80 45 117 115 129v-22c0 -10 -9 -21 -29 -31c-23 -13 -35 -32 -35 -55c0 -12 6 -17 19 -17h43v-67c0 -26 -14 -39 -43 -39zM283 451h-70v102c0 80 45 117 115 129v-22c0 -10 -9 -21 -29 -31c-23 -13 -35 -32 -35 -55c0 -12 6 -17 19 -17h43v-67
c0 -26 -14 -39 -43 -39z" />
    <glyph glyph-name="glyph212" horiz-adv-x="373" 
d="M262 680h70v-102c0 -80 -45 -117 -115 -129v22c0 10 9 21 29 31c23 13 35 32 35 55c0 12 -6 17 -19 17h-43v67c0 26 14 39 43 39zM84 680h70v-102c0 -80 -45 -117 -115 -129v22c0 10 9 21 29 31c23 13 36 32 36 55c0 12 -7 17 -20 17h-43v67c0 26 14 39 43 39z" />
    <glyph glyph-name="glyph213" horiz-adv-x="351" 
d="M176 225c-58 0 -108 50 -108 111c0 60 49 107 110 107c59 0 109 -50 109 -107c0 -59 -52 -111 -111 -111z" />
    <glyph glyph-name="glyph214" horiz-adv-x="636" 
d="M55 227v46c0 17 8 26 25 26h492v-72h-517z" />
    <glyph glyph-name="glyph215" horiz-adv-x="830" 
d="M55 227v46c0 17 8 26 25 26h688v-72h-713z" />
    <glyph glyph-name="glyph216" horiz-adv-x="337" 
d="M55 227v46c0 17 8 26 25 26h199v-72h-224z" />
    <glyph glyph-name="glyph217" 
d="M475 436v-172c0 -17 -9 -26 -26 -26h-47v125h-347v47c0 17 8 26 25 26h395z" />
    <glyph glyph-name="glyph218" horiz-adv-x="488" 
d="M121 637c0 20 10 35 31 45c39 12 84 -12 113 -22c41 -14 73 -24 102 10c0 -50 5 -80 -37 -88c-66 -14 -167 85 -209 2v53z" />
    <glyph glyph-name="glyph219" horiz-adv-x="730" 
d="M45 645c0 18 19 35 37 35h230v-61h-99v-271h-68v271h-100v26zM342 645c0 18 15 35 33 35h66l69 -250l64 250h98v-332h-61v267l-70 -267h-68l-69 267v-267h-62v297z" />
    <glyph glyph-name="glyph220" horiz-adv-x="146" 
d="M113 682v-366h-78v311c-1 36 20 55 63 55h15zM113 193v-365h-78v311c-1 36 20 54 63 54h15z" />
    <glyph glyph-name="glyph221" horiz-adv-x="351" 
d="M29 494v47c0 17 9 25 26 25h271v-72h-297z" />
    <glyph glyph-name="glyph222" horiz-adv-x="359" 
d="M307 -100c0 -71 -131 -16 -159 -6c-45 16 -80 11 -99 -27v61c1 21 13 37 35 49c77 24 168 -85 223 -10v-67z" />
    <glyph glyph-name="glyph223" horiz-adv-x="371" 
d="M199 281c0 29 13 53 39 74l74 63v-47c0 -25 -9 -32 -21 -47l-45 -41l66 -58v-77l-74 61c-26 22 -39 46 -39 72zM137 371c0 -25 -10 -32 -22 -47l-45 -41l67 -58v-77l-75 61c-26 22 -39 46 -39 72c0 29 13 53 39 74l75 63v-47z" />
    <glyph glyph-name="glyph224" horiz-adv-x="318" 
d="M268 680l-112 -114h-66l49 92c8 16 22 23 43 22h86z" />
    <glyph glyph-name="glyph225" horiz-adv-x="445" 
d="M232 -20c48 0 90 28 90 75c0 20 -8 36 -25 52c-3 4 -67 48 -195 133c-20 13 -34 27 -43 41c-16 21 -24 46 -24 73c1 47 23 83 65 109l31 17l-24 24c-13 12 -22 25 -27 39c-33 82 45 145 135 143c52 0 90 -12 113 -34c18 -16 32 -35 41 -60h-33c-32 0 -44 7 -55 27
c-13 21 -33 31 -60 31c-46 0 -86 -24 -86 -64c0 -22 9 -42 29 -59c8 -8 71 -50 188 -127c39 -29 58 -63 58 -105c0 -21 -5 -40 -15 -57c-13 -21 -40 -44 -79 -70l26 -22c31 -31 46 -59 43 -85c0 -79 -74 -116 -156 -116c-81 0 -148 37 -165 98c66 0 64 -9 94 -39
c21 -16 45 -24 74 -24zM88 377c0 -50 38 -81 70 -102l141 -93l15 13c52 55 64 96 34 125c-13 16 -78 64 -194 145l-15 -8c-26 -14 -51 -45 -51 -80z" />
    <glyph glyph-name="glyph226" horiz-adv-x="378" 
d="M27 260v13c4 64 85 64 162 38c74 -26 126 -34 153 -24c-1 0 -4 -5 -8 -17c-12 -29 -47 -35 -104 -18c-96 39 -148 51 -203 8z" />
    <glyph glyph-name="glyph227" horiz-adv-x="378" 
d="M27 260v13c4 64 85 64 162 38c74 -26 126 -34 153 -24c-1 0 -4 -5 -8 -17c-12 -29 -47 -35 -104 -18c-96 39 -148 51 -203 8z" />
    <glyph glyph-name="glyph228" horiz-adv-x="273" 
d="M367 652c0 14 8 22 22 22h45v-67l-34 -169c-33 172 -33 171 -33 171v43zM502 652c0 14 7 22 21 22h45v-67l-33 -169c-33 172 -33 171 -33 171v43z" />
    <glyph glyph-name="glyph229" horiz-adv-x="314" 
d="M64 680h51v-73l-39 -169l-41 167v47c0 18 9 28 29 28zM221 680h50v-73l-39 -169l-41 167v47c0 18 10 28 30 28z" />
    <glyph glyph-name="glyph230" horiz-adv-x="761" 
d="M422 680v-184h230c48 -3 73 -29 73 -80v-29h-303v-635h-111v635h-266v109h267v119c0 44 25 66 73 65h37z" />
    <glyph glyph-name="glyph231" horiz-adv-x="761" 
d="M422 680v-184h230c48 -3 73 -29 73 -80v-29h-303v-164h228c49 -1 75 -29 75 -82v-28h-303v-361h-111v361h-268v110h268v164h-266v109h267v119c0 44 25 66 73 65h37z" />
    <glyph glyph-name="glyph232" horiz-adv-x="761" 
d="M422 680v-184h230c48 -3 73 -29 73 -80v-29h-303v-635h-111v635h-266v109h267v119c0 44 25 66 73 65h37z" />
    <glyph glyph-name="glyph233" horiz-adv-x="761" 
d="M422 680v-184h230c48 -3 73 -29 73 -80v-29h-303v-164h228c49 -1 75 -29 75 -82v-28h-303v-361h-111v361h-268v110h268v164h-266v109h267v119c0 44 25 66 73 65h37z" />
    <glyph glyph-name="glyph236" horiz-adv-x="646" 
 />
    <glyph glyph-name="glyph238" horiz-adv-x="597" 
 />
    <glyph glyph-name="glyph240" horiz-adv-x="722" 
 />
    <glyph glyph-name="glyph242" horiz-adv-x="722" 
d="M82 119c86 170 98 311 98 561h369c59 0 88 -28 88 -84v-477h52v-246h-173v127h-309v-127h-168v246h43zM336 539c0 -185 -41 -302 -90 -420h225v420h-135z" />
    <glyph glyph-name="glyph245" horiz-adv-x="1082" 
 />
    <glyph glyph-name="glyph248" horiz-adv-x="679" 
 />
    <glyph glyph-name="glyph251" horiz-adv-x="679" 
 />
    <glyph glyph-name="glyph252" horiz-adv-x="673" 
 />
    <glyph glyph-name="glyph257" horiz-adv-x="664" 
 />
    <glyph glyph-name="glyph263" horiz-adv-x="683" 
 />
    <glyph glyph-name="glyph264" horiz-adv-x="912" 
 />
    <glyph glyph-name="glyph267" horiz-adv-x="716" 
 />
    <glyph glyph-name="glyph268" horiz-adv-x="1035" 
 />
    <glyph glyph-name="glyph269" horiz-adv-x="722" 
d="M625 145v457c-3 52 -31 78 -84 78h-84v-535l-250 535h-168v-680h477v-168h168v313h-59z" />
    <glyph glyph-name="glyph272" horiz-adv-x="617" 
 />
    <glyph glyph-name="glyph273" horiz-adv-x="1000" 
 />
    <glyph glyph-name="glyph276" horiz-adv-x="1000" 
 />
    <glyph glyph-name="glyph277" horiz-adv-x="1060" 
 />
    <glyph glyph-name="glyph278" horiz-adv-x="792" 
 />
    <glyph glyph-name="glyph282" horiz-adv-x="1027" 
 />
    <glyph glyph-name="glyph283" horiz-adv-x="625" 
 />
    <glyph glyph-name="glyph285" horiz-adv-x="712" 
 />
    <glyph glyph-name="glyph286" horiz-adv-x="615" 
 />
    <glyph glyph-name="glyph287" horiz-adv-x="1035" 
 />
    <glyph glyph-name="glyph289" horiz-adv-x="1015" 
 />
    <glyph glyph-name="glyph292" horiz-adv-x="652" 
 />
    <glyph glyph-name="glyph293" horiz-adv-x="576" 
 />
    <glyph glyph-name="glyph295" horiz-adv-x="507" 
 />
    <glyph glyph-name="glyph297" horiz-adv-x="468" 
 />
    <glyph glyph-name="glyph299" horiz-adv-x="468" 
 />
    <glyph glyph-name="glyph301" horiz-adv-x="666" 
 />
    <glyph glyph-name="glyph303" horiz-adv-x="875" 
 />
    <glyph glyph-name="glyph305" horiz-adv-x="800" 
d="M176 449h447v-449h-447v449zM254 387c-13 0 -20 -1 -20 -2c0 -5 9 -8 26 -8c17 -4 25 -3 25 4c0 2 -3 5 -8 6l-21 6c-14 0 -22 -1 -22 -2c6 -2 10 -4 20 -4zM295 363c0 8 -11 12 -33 12c-23 4 -33 2 -28 -6c0 -8 11 -12 32 -12c20 -4 29 -2 29 6zM303 330
c0 14 -12 22 -35 22c-27 1 -39 -4 -34 -16c0 -12 12 -19 37 -20c21 0 32 5 32 14zM271 311c-29 0 -41 -10 -37 -28c0 -20 14 -29 43 -29c25 -4 37 3 37 23c-4 17 -18 29 -43 34zM273 242c-30 0 -43 -13 -39 -39c3 -26 19 -39 49 -39c27 0 40 13 37 39c-4 26 -20 39 -47 39z
M279 148c-34 0 -49 -14 -45 -43c0 -30 17 -44 51 -44c30 0 45 14 45 44c-4 29 -21 43 -51 43zM410 334c6 0 35 -25 41 -33c0 -8 -41 25 -41 33zM283 387c2 -2 5 -5 8 -6c0 -7 7 -11 23 -12c-9 0 -13 -1 -13 -4c4 -9 13 -14 29 -17c18 -8 27 -8 27 0c-4 4 -13 9 -29 17
c8 -4 12 -4 12 0c4 4 -5 8 -26 12h14c-9 2 -15 4 -25 8zM371 359h-2v4c-8 1 -11 2 -17 8c-21 4 -22 4 -22 4c5 -3 9 -6 16 -6c-4 -4 1 -8 17 -15l24 -6c0 3 -1 4 -4 4h4c1 -2 2 -4 6 -4c0 -4 29 -21 35 -24c8 0 2 6 -18 16c-4 0 -10 1 -10 6c-4 4 -7 6 -11 6
c-8 2 -12 4 -18 7zM473 279c0 -8 25 -35 33 -43c1 1 -3 10 -12 24c-13 13 -20 19 -21 19zM449 311v-4c5 -9 27 -30 33 -30c1 -2 1 -4 2 -6c10 -10 10 -9 16 -15h1c-3 4 -8 8 -13 15c-10 8 -13 15 -19 24v-4h-1c-1 0 -1 1 -1 4l-16 16c-8 6 -12 8 -19 13c6 -6 8 -7 17 -13z
M547 174c-5 7 -7 11 -10 17h-1c-1 0 -1 1 -1 2c-1 2 -1 4 -2 6h2c0 3 -4 11 -12 24c-10 10 -11 14 -15 25v-6c-2 6 -5 9 -8 12c2 -8 17 -31 20 -31c0 -2 2 -12 5 -12c-1 1 -1 3 -2 4c-9 0 20 -47 20 -47v6c3 -12 6 -18 10 -18c-4 5 -6 8 -6 18zM557 117v1c1 -4 3 -8 5 -11
c0 0 1 1 -3 22c-2 8 -4 12 -6 19c0 0 0 1 0 -3l-12 23c0 -8 1 -17 2 -27c7 -16 11 -24 14 -24zM562 72c0 -6 1 -7 2 -11c3 0 4 7 4 21l-6 23s0 1 0 -4c-1 5 -3 6 -5 6c-3 0 -4 -7 -4 -23c0 -10 3 -16 6 -23c3 0 3 3 3 11zM426 102c0 -27 9 -41 29 -41c20 -4 29 7 29 33
c0 46 -58 66 -58 8zM537 117c-5 5 -8 -2 -8 -23c4 -21 8 -32 12 -33c10 -7 13 1 8 23c0 18 -4 29 -12 33zM410 328c-7 5 -31 24 -45 24h-2c0 -7 8 -14 24 -22s23 -9 23 -2zM381 318c0 -8 9 -17 27 -27c17 -12 26 -12 26 0c-5 13 -14 22 -26 27c-18 10 -27 10 -27 0zM518 217
l-18 19c-13 -18 50 -89 18 -19zM523 148c32 -79 14 51 -3 34c-5 -5 -5 -17 3 -34zM467 193c-12 22 -25 31 -39 24c-31 -19 8 -82 35 -69c17 9 18 24 4 45zM312 334c0 -12 12 -20 34 -27c23 -8 33 -7 29 5c0 10 -11 20 -33 28c-20 5 -30 3 -30 -6zM357 297
c-22 7 -33 0 -33 -18c3 -17 16 -28 39 -35c21 -8 32 -2 32 18c-4 16 -17 27 -38 35zM369 232c-27 3 -39 -8 -35 -33c1 -25 15 -38 41 -41c23 -4 35 7 35 33c-4 23 -18 37 -41 41zM340 105c0 -30 14 -44 41 -44c26 -4 39 9 39 39c0 27 -14 42 -43 46c-25 0 -37 -14 -37 -41z
M490 100c0 -38 35 -61 35 -12c0 41 -35 64 -35 12zM512 180c-12 20 -21 26 -28 19c-12 -8 -12 -20 0 -37c10 -22 20 -29 28 -21c9 1 9 14 0 39zM488 242c-13 13 -22 19 -27 18c-24 -24 76 -94 27 -18zM475 262c20 15 -85 76 -24 15c10 -16 19 -20 24 -15zM443 266
c-16 16 -29 20 -39 13c-12 -8 -8 -19 10 -35c13 -18 25 -23 37 -15c10 3 8 15 -8 37z" />
    <glyph glyph-name="glyph306" 
 />
    <glyph glyph-name="glyph310" horiz-adv-x="509" 
 />
    <glyph glyph-name="glyph312" horiz-adv-x="615" 
 />
    <glyph glyph-name="glyph313" 
 />
    <glyph glyph-name="glyph314" horiz-adv-x="615" 
 />
    <glyph glyph-name="glyph315" horiz-adv-x="615" 
 />
    <glyph glyph-name="glyph317" horiz-adv-x="658" 
 />
    <glyph glyph-name="glyph320" horiz-adv-x="527" 
 />
    <glyph glyph-name="glyph321" horiz-adv-x="738" 
 />
    <glyph glyph-name="glyph329" horiz-adv-x="914" 
 />
    <glyph glyph-name="glyph333" horiz-adv-x="644" 
 />
    <glyph glyph-name="glyph335" horiz-adv-x="1035" 
d="M525 127v322c-1 52 -29 78 -84 78h-46v-400h-223v400h-133v-527h410v-168h133v295h-57z" />
    <glyph glyph-name="glyph339" horiz-adv-x="736" 
 />
    <glyph glyph-name="glyph340" horiz-adv-x="755" 
d="M387 186c0 -58 -42 -63 -102 -63h-109v123h109c57 0 102 -5 102 -60zM527 186c0 141 -95 181 -246 181h-105v88c0 48 -25 72 -76 72h-61v-527h242c153 0 246 43 246 186zM654 527c37 0 65 -27 65 -64v-463h-133v527h68z" />
    <glyph glyph-name="glyph343" horiz-adv-x="800" 
 />
    <glyph glyph-name="glyph345" horiz-adv-x="570" 
 />
    <glyph glyph-name="glyph346" horiz-adv-x="576" 
 />
    <glyph glyph-name="glyph348" horiz-adv-x="843" 
 />
    <glyph glyph-name="glyph358" horiz-adv-x="382" 
 />
    <glyph glyph-name="glyph359" horiz-adv-x="351" 
d="M176 225c-58 0 -108 50 -108 111c0 60 49 107 110 107c59 0 109 -50 109 -107c0 -59 -52 -111 -111 -111z" />
    <glyph glyph-name="glyph361" horiz-adv-x="351" 
d="M174 277c-30 0 -59 31 -59 63s28 58 61 58c31 0 60 -26 60 -58c0 -34 -29 -63 -62 -63z" />
    <glyph glyph-name="glyph362" horiz-adv-x="1000" 
 />
    <glyph glyph-name="glyph364" horiz-adv-x="1000" 
 />
    <glyph glyph-name="glyph365" horiz-adv-x="1076" 
d="M-744 680h168v-680h-188l-234 393v-393h-168v598c-1 55 27 82 84 82h103l235 -391v391zM-479 270v41c0 20 10 29 28 29h224v-70h-252zM-508 529c0 117 95 193 217 151c57 -21 92 -76 92 -153c0 -107 -67 -178 -188 -159c-80 13 -121 75 -121 161zM-354 443
c36 0 54 28 55 84c0 29 -6 52 -19 69c-16 13 -34 16 -55 9c-22 -9 -34 -35 -35 -78c0 -56 18 -84 54 -84z" />
    <glyph glyph-name="glyph367" horiz-adv-x="1035" 
 />
    <glyph glyph-name="glyph368" horiz-adv-x="1035" 
 />
    <glyph glyph-name="glyph369" horiz-adv-x="574" 
 />
    <glyph glyph-name="glyph370" horiz-adv-x="527" 
d="M119 418c-39 0 -68 29 -68 68v43h433v-113l-281 -301h289v-115h-457v105l283 313h-199zM193 680h-47l65 -69c20 -27 44 -41 74 -41c26 0 51 14 74 41l61 69h-78l-61 -61l-39 39c-14 14 -23 22 -49 22z" />
    <glyph glyph-name="glyph371" 
 />
    <glyph glyph-name="glyph372" horiz-adv-x="351" 
d="M55 566h271l-2 -72h-297l2 47c0 17 9 25 26 25z" />
    <glyph glyph-name="glyph373" horiz-adv-x="839" 
 />
    <glyph glyph-name="glyph374" horiz-adv-x="1035" 
 />
    </font>
</defs>
</svg>
