<?xml version="1.0" standalone="no"?>
<!DOCTYPE svg PUBLIC "-//W3C//DTD SVG 1.1//EN" "http://www.w3.org/Graphics/SVG/1.1/DTD/svg11.dtd" >
<svg xmlns="http://www.w3.org/2000/svg">
<metadata></metadata>
<defs>
<font id="vagrounded_ltregular" horiz-adv-x="1095" >
<font-face units-per-em="2048" ascent="1638" descent="-410" />
<missing-glyph horiz-adv-x="491" />
<glyph horiz-adv-x="0" />
<glyph unicode="&#xd;" horiz-adv-x="0" />
<glyph unicode=" "  horiz-adv-x="491" />
<glyph unicode="&#x09;" horiz-adv-x="491" />
<glyph unicode="&#xa0;" horiz-adv-x="491" />
<glyph unicode="!" horiz-adv-x="567" d="M196 92q0 42 31 73t76 31q44 0 74.5 -31t30.5 -73t-31.5 -73t-73.5 -31q-44 0 -75.5 31.5t-31.5 72.5zM213 484v896q0 42 25.5 65t60.5 23q40 0 66 -22q26 -24 26 -66v-892q0 -94 -92 -101q-34 3 -60 29t-26 68z" />
<glyph unicode="&#x22;" horiz-adv-x="643" d="M112 1096v288q0 42 24 65t60 23q35 0 59.5 -22t24.5 -66v-288q0 -36 -24 -56q-26 -20 -64 -24q-80 8 -80 80zM404 1096v288q0 42 24 65t60 23t60 -22t24 -66v-288q0 -72 -88 -80q-80 8 -80 80z" />
<glyph unicode="#" d="M24 508q6 68 88 68h144l43 304h-131q-36 0 -58 19t-26 45q3 31 24.5 51.5t55.5 20.5h152l56 380q6 51 24 64q18 12 52 12q68 0 68 -71v-25l-47 -360h239l56 385q6 42 25 56.5t55 14.5q68 0 68 -92l-52 -364h127q40 0 62 -20.5t22 -51.5q0 -26 -21.5 -45t-62.5 -19h-143 l-43 -304h127q80 0 80 -68q0 -27 -20 -45.5t-56 -18.5h-152l-53 -376q-4 -45 -20 -62q-15 -18 -55 -18q-70 0 -76 76q4 8 4 20l53 360h-246l-51 -376q-6 -46 -23 -63t-57 -17q-66 0 -72 76q4 8 4 24l48 356h-132q-35 0 -55.5 19t-24.5 45zM408 576h239l45 304h-244z" />
<glyph unicode="$" horiz-adv-x="948" d="M41 168q11 84 71 84q40 0 68 -16q142 -92 268 -92v568q-132 40 -216.5 89t-130 122t-45.5 181q4 88 55 169t139.5 135t197.5 64v101q0 16 12 25.5t28 9.5q44 0 44 -39v-97q178 -18 277 -96q35 -32 35 -76q0 -32 -23.5 -54t-60.5 -26q-31 10 -85 39.5t-80 41.5 q-27 12 -63 16v-449q208 -67 310 -164.5t102 -283.5q-10 -114 -63 -205t-143 -148t-206 -71v-104q0 -20 -13 -32t-31 -12q-15 0 -27.5 12t-12.5 32v96q-105 0 -197.5 27.5t-150.5 68.5q-56 39 -59 84zM248 1112q0 -143 200 -213v418q-84 -10 -140.5 -64.5t-59.5 -140.5z M532 152q58 11 107 46.5t80 96.5t33 141q0 82 -46 140t-174 104v-528z" />
<glyph unicode="%" horiz-adv-x="1515" d="M84 1116q2 98 37 179t106 129t173 48q86 0 156 -42t111 -123t41 -191q-2 -104 -43.5 -181t-111.5 -116q-69 -39 -157 -39q-136 0 -224 96t-88 240zM219 1120q0 -65 23 -117.5t63 -82.5q41 -31 91 -31q176 11 176 231q0 110 -47 175t-125 65q-88 0 -133 -66t-48 -174z M396 28q10 34 16 48l565 1356q19 58 63 57q28 0 52 -14.5t24 -42.5q0 -14 -8 -40l-572 -1372q-12 -48 -71 -48q-55 0 -69 56zM809 320q0 98 34.5 178.5t106.5 129.5q70 48 174 48q85 0 155.5 -42t111.5 -123t41 -191q-2 -106 -43 -182t-112 -115t-157 -39q-90 0 -161 44 t-110.5 121.5t-39.5 170.5zM944 324q0 -95 48 -162q48 -66 128 -66q60 2 100 36t58 87t18 113q0 109 -48 170t-128 61q-86 0 -129.5 -65t-46.5 -174z" />
<glyph unicode="&#x26;" horiz-adv-x="1368" d="M72 416q2 15 4 42.5t4 41.5q18 111 83 199t237 190q-63 67 -98.5 118t-48.5 95t-13 102q0 86 47 147t124 91t165 30q141 0 240.5 -71t99.5 -197q-4 -97 -60 -182.5t-204 -165.5l325 -387q32 40 73.5 106.5t45.5 71.5q50 88 96 88q76 0 76 -59q0 -55 -29 -110t-71 -107 q-42 -53 -88 -107l188 -227q24 -31 24 -69q0 -26 -24 -45t-56 -19q-38 0 -59 24l-176 207q-63 -78 -138.5 -131t-157 -78.5t-165.5 -25.5q-122 0 -223 54t-160 152t-61 222zM248 432q6 -80 42 -143t98 -99t144 -38q91 3 181.5 51t158.5 141l-372 428q-244 -128 -252 -340z M416 1180q4 -8 4 -27q4 -20 17 -42.5t32 -45.5t51 -59t33 -38q191 98 191 220q0 62 -49 100.5t-119 38.5q-74 0 -115 -42.5t-45 -104.5z" />
<glyph unicode="'" horiz-adv-x="381" d="M47 1096q5 22 21 59l124 250q30 63 88 63q36 0 62 -19t26 -57q0 -33 -16 -65l-129 -247q-27 -64 -83 -72q-79 14 -93 88z" />
<glyph unicode="(" horiz-adv-x="415" d="M131 692q2 140 18 273t43.5 250t63.5 217q27 76 88 76q30 0 49 -17t19 -47q0 -48 -29 -134t-35 -114q-18 -90 -28 -174t-14 -156t-7 -190q0 -146 7.5 -275.5t30.5 -257t67 -239.5q8 -32 8 -44q0 -26 -23.5 -45.5t-48.5 -19.5q-49 0 -80 70q-52 117 -81 255t-38.5 277.5 t-9.5 294.5z" />
<glyph unicode=")" horiz-adv-x="415" d="M76 -135q116 344 116 811q0 410 -108 735q0 21 -4 29q8 68 64 68q66 0 92 -76q124 -314 124 -808q0 -480 -128 -759q-30 -70 -80 -70q-29 0 -51 19.5t-25 50.5z" />
<glyph unicode="*" horiz-adv-x="796" d="M72 1243q0 30 22 52t54 22t64.5 -20t81 -62.5t54.5 -46.5q-2 42 -24 200q0 36 22 60t54 24t51.5 -18t19.5 -53q0 -20 -9.5 -91.5t-9.5 -121.5q30 28 63 58t68 50.5t69 20.5q30 0 49.5 -21.5t19.5 -52.5q0 -38 -41 -55l-188 -80l196 -80q37 -12 37 -60q0 -27 -19.5 -48.5 t-53.5 -22.5q-34 5 -68 31l-132 104q0 -38 9 -102t10 -98q1 -82 -75 -88q-28 0 -49 22t-23 58q24 90 24 196v12q-39 -34 -70.5 -61t-63.5 -47q-30 -20 -70 -27q-25 0 -45 23.5t-23 52.5q6 44 40 55l191 80q-14 6 -82.5 27.5t-106.5 44.5q-38 24 -46 63z" />
<glyph unicode="+" horiz-adv-x="1229" d="M92 520q4 35 25 59.5t55 24.5h360v352q0 36 24 58t60 22q34 0 59 -21t25 -59v-352h357q37 0 58 -25t21 -59q0 -36 -22 -60t-62 -24h-352v-356q0 -36 -24 -58q-26 -22 -60 -22q-36 0 -60 22.5t-24 61.5v352h-360q-34 0 -55 24t-25 60z" />
<glyph unicode="," horiz-adv-x="491" d="M41 -180q4 37 19 59l132 261q32 56 84 56q34 0 57 -21t23 -59q0 -30 -12 -60l-131 -256q-32 -60 -92 -60q-32 0 -55.5 22t-24.5 58z" />
<glyph unicode="-" horiz-adv-x="721" d="M68 545q3 34 25.5 58.5t58.5 24.5h411q42 0 63 -22t21 -57q0 -34 -21.5 -56t-62.5 -22h-407q-38 0 -62 22t-26 52z" />
<glyph unicode="." horiz-adv-x="491" d="M152 92q0 42 31 73t73 31t73 -31t31 -73t-31 -73t-73 -31t-73 32t-31 72z" />
<glyph unicode="/" horiz-adv-x="831" d="M37 64q2 8 5 23.5t5 24.5l581 1299q11 30 34.5 45.5t49.5 15.5q32 0 56 -20q24 -22 24 -56q0 -16 -8 -40l-579 -1305q-25 -63 -89 -63q-30 0 -53 21t-26 55z" />
<glyph unicode="0" d="M68 756q0 154 47 317t156 277t282 122q120 0 212.5 -64t151 -170t87 -233t28.5 -253q0 -170 -34 -311.5t-98 -243t-152 -155.5t-195 -54q-120 0 -212 59t-152.5 164t-90.5 246t-30 299zM260 748q0 -168 31.5 -304t98 -218t163.5 -82q93 0 158 79t97 209t32 280 q0 204 -37.5 340t-103.5 200.5t-154 64.5q-96 -4 -160.5 -88t-94.5 -213.5t-30 -267.5z" />
<glyph unicode="1" horiz-adv-x="721" d="M68 1380q3 34 25.5 57t62.5 23h309q34 0 42.5 -12.5t8.5 -38.5v-1325q0 -46 -27 -71t-65 -25q-34 0 -61 25.5t-27 70.5v1220h-184q-36 0 -59 22t-25 54z" />
<glyph unicode="2" d="M104 1016q2 122 55 226t159 167t254 63q108 -2 198 -51t142 -135t52 -194q0 -150 -108 -296l-484 -640h556q76 0 76 -80q0 -32 -20 -54t-60 -22h-719q-34 0 -59.5 16t-29.5 48q8 44 24 65l552 743q76 102 76 216q0 96 -68 160q-68 65 -164 65q-71 0 -130.5 -40.5 t-94.5 -108.5t-35 -148q0 -110 -88 -117q-2 2 -4.5 3t-3.5 1q-76 7 -76 113z" />
<glyph unicode="3" d="M80 328q3 40 27.5 68t60.5 28q64 0 88 -80q57 -180 248 -204q72 2 136 36t103 92t41 128q0 292 -248 292q-114 0 -120 72q0 40 26 54t98 34q88 24 132.5 85t44.5 179q-4 61 -32 107.5t-73.5 72t-99.5 25.5q-86 0 -143 -51.5t-66 -161.5q0 -40 -24 -64t-60 -28 q-37 4 -60.5 36t-23.5 92q12 98 64 174t140 117q87 41 201 41q104 -4 186.5 -57t126.5 -139t44 -184q0 -90 -42.5 -171t-127.5 -137q122 -38 184 -134t62 -222q-1 -34 -9 -104q-18 -89 -74 -165.5t-157 -123.5t-241 -47q-98 0 -182.5 39t-142 104t-79.5 145q-2 8 -4 26 t-4 26z" />
<glyph unicode="4" d="M16 428q6 42 44 104l528 856q32 56 63.5 70t75.5 14q65 0 101 -40t36 -105v-795h92q34 0 57 -25t23 -59q0 -30 -22.5 -50.5t-65.5 -20.5h-84v-293q0 -45 -27.5 -70.5t-64.5 -25.5q-36 0 -62 25t-26 67v297h-580q-82 0 -88 51zM252 532h432v748h-4z" />
<glyph unicode="5" d="M88 228q0 32 18 54q20 21 46 21q44 -1 76 -35q116 -110 268 -116q118 3 200 82.5t84 221.5q0 111 -32 183.5t-89 106.5t-135 34q-38 0 -62 -6t-88 -25t-98 -24q-56 -1 -61 63q4 12 4 27l84 565q10 58 17.5 69t47.5 11h516q35 0 55.5 -23t20.5 -57q0 -32 -21 -54t-59 -22 h-411l-61 -396q90 40 184 40q116 0 203 -63t133.5 -167t46.5 -222q0 -28 -2 -44q-10 -118 -52.5 -208t-107.5 -146t-144.5 -83t-164.5 -27q-82 0 -173.5 25.5t-160.5 79.5q-68 55 -82 135z" />
<glyph unicode="6" d="M104 508q2 19 4 56.5t4 55.5q42 274 196.5 479t324.5 345q31 28 63 28q34 0 53 -27t19 -61q0 -32 -24 -59t-67 -62t-57 -51q-80 -86 -124.5 -152t-108.5 -176h4q113 60 225 60q119 0 204.5 -72.5t128 -186t42.5 -233.5q-2 -103 -38 -189.5t-98.5 -147.5t-143.5 -94 t-171 -33q-128 0 -227 68t-153 186t-56 266zM284 461q4 -135 73 -220t183 -85q129 0 193.5 89.5t64.5 229.5q0 31 -2 45q-25 258 -243 268q-104 0 -175 -62t-85 -194q-1 -22 -9 -71z" />
<glyph unicode="7" horiz-adv-x="983" d="M47 1392q3 34 25.5 57t62.5 23h745q92 0 93 -48q-1 -8 -21 -72l-565 -1284q-33 -80 -111 -80q-28 0 -48 18q-20 20 -23 54q6 38 18 71l525 1182l4 4h-612q-85 -1 -93 75z" />
<glyph unicode="8" d="M100 448q3 134 70.5 233.5t197.5 133.5q-92 50 -140.5 133.5t-51.5 179.5q2 90 44.5 168.5t124.5 125.5q81 48 195 50q121 0 207 -47t129.5 -125t43.5 -172q0 -98 -48 -184t-141 -133q130 -31 197.5 -132t67.5 -235q0 -114 -52.5 -219t-153 -171t-237.5 -66 q-138 0 -240.5 66t-156.5 172t-56 222zM293 436q0 -67 29 -134.5t86.5 -111.5t136.5 -46q84 0 142.5 41t88.5 109q29 68 29 146q0 74 -29.5 141t-88.5 108.5t-142 41.5q-118 -3 -185 -90.5t-67 -204.5zM344 1104q0 -98 53 -156.5t156 -58.5q98 0 150.5 62.5t52.5 156.5 q0 56 -24.5 104t-70 76.5t-106.5 28.5q-96 0 -153.5 -56.5t-57.5 -156.5z" />
<glyph unicode="9" d="M104 1008q2 136 64 242t165 164t222 58q96 0 176.5 -39t138 -111t87.5 -168t30 -206q0 -174 -70.5 -345.5t-188 -318t-263.5 -268.5q-35 -24 -69 -24q-30 0 -50 25q-18 25 -22 55q4 12 4 24q10 20 70.5 75t80.5 77q78 86 119.5 148t109.5 180h-4q-90 -52 -220 -60 q-111 6 -181 47q-70 44 -114.5 117t-64.5 157.5t-20 170.5zM297 985q0 -30 2 -45q13 -127 72 -194.5t174 -73.5q102 0 174.5 63t89.5 193v59q0 142 -67.5 229.5t-186.5 87.5q-128 0 -193 -89.5t-65 -229.5z" />
<glyph unicode=":" horiz-adv-x="491" d="M152 92q0 42 31 73t73 31q44 0 74 -30.5t30 -73.5q0 -44 -30 -74t-74 -30q-42 0 -73 30.5t-31 73.5zM152 780q0 41 31 72.5t73 31.5q44 0 74 -30q30 -32 30 -74q0 -43 -30 -73.5t-74 -30.5q-42 0 -73 32q-31 30 -31 72z" />
<glyph unicode=";" horiz-adv-x="491" d="M41 -176q4 28 15 47l140 273q24 52 84 52q32 0 56 -19t24 -56q0 -21 -16 -61l-129 -260q-26 -56 -90 -56q-32 0 -57.5 23t-26.5 57zM152 780q0 41 31 72.5t73 31.5q44 0 74 -30q30 -32 30 -74q0 -43 -30 -73.5t-74 -30.5q-42 0 -73 32q-31 30 -31 72z" />
<glyph unicode="&#x3c;" horiz-adv-x="1229" d="M92 512q8 64 68 96l848 424q40 16 63 16q31 0 50 -18.5t19 -48.5q0 -58 -65 -84l-768 -377l781 -389q48 -21 48 -75q0 -28 -18.5 -48t-50.5 -20q-13 0 -55 16l-864 428q-48 28 -56 80z" />
<glyph unicode="=" horiz-adv-x="1229" d="M92 299q4 40 26 64t62 24h877q37 0 56 -24t19 -60t-20.5 -60t-59.5 -24h-872q-38 0 -61 23.5t-27 56.5zM92 727q4 40 26 64t62 24h877q37 0 56 -24t19 -60t-20.5 -60t-59.5 -24h-872q-38 0 -61 23.5t-27 56.5z" />
<glyph unicode="&#x3e;" horiz-adv-x="1229" d="M84 983q0 26 22 45.5t54 19.5q28 0 63 -16l848 -424q65 -32 65 -96q0 -48 -56 -80l-861 -428q-37 -16 -59 -16q-27 0 -46 20q-18 20 -22 48q8 62 52 75l780 389l-768 377q-64 31 -72 86z" />
<glyph unicode="?" horiz-adv-x="907" d="M37 1164q4 16 4 40q24 108 137.5 188t269.5 80q102 -2 196 -43t158 -122t74 -195q0 -170 -90 -277t-258 -143v-213q0 -40 -27 -64.5t-65 -27.5q-36 3 -62 28t-26 64v273q0 44 22 63t81 33t77 20q59 14 103.5 62.5t44.5 136.5q0 106 -65 171.5t-175 65.5q-86 0 -144 -40.5 t-77 -108.5q-27 -87 -86 -90q-50 16 -69.5 33.5t-22.5 65.5zM332 92q0 42 32 73t76 31q42 0 73.5 -31t31.5 -73q0 -40 -32.5 -72t-72.5 -32q-44 0 -76 31.5t-32 72.5z" />
<glyph unicode="@" horiz-adv-x="1640" d="M76 717q0 228 112 398.5t287 261.5t353 95q200 0 363 -73t261 -203t112 -293q2 -14 2 -43q0 -104 -37 -206t-105 -183t-162 -130t-201 -52q-133 7 -145 119h-8q-94 -112 -244 -119q-89 5 -156 49.5t-104 117.5q-38 72 -40 160q8 134 65 254t159 195q104 75 240 75 q164 0 239 -153l29 84q12 40 25 50.5t43 10.5t52.5 -12t22.5 -40q0 -4 -1 -14t-1 -14l-145 -497q-2 -11 -3.5 -18.5t-3 -16t-3.5 -16.5q0 -8 -2 -16q0 -53 60 -60q67 16 117.5 56.5t84.5 98t50.5 125t16.5 136.5q0 144 -77 256.5t-211 173.5q-133 62 -297 62 q-159 -6 -295.5 -81.5t-218.5 -214t-82 -323.5q0 -176 90 -311t230 -206.5t284 -74.5q120 0 201.5 20.5t136 53.5t130.5 94q68 55 109 55q18 0 34.5 -14t16.5 -35q0 -25 -32 -71q-34 -39 -120 -95.5t-213 -100.5t-267 -44q-200 4 -372 101.5t-275 263t-105 364.5zM545 633 q5 -157 167 -189q85 6 148.5 67t97 150t33.5 175q-1 144 -123 151q-130 0 -203.5 -70t-101.5 -165q-8 -36 -18 -119z" />
<glyph unicode="A" horiz-adv-x="1251" d="M16 60q2 12 6 26t6 22l472 1260q18 52 52 80t72 28q42 0 76 -27t52 -77l477 -1264q8 -32 8 -52q0 -34 -23.5 -53t-60.5 -19q-30 0 -56 17t-36 50l-97 265h-675l-97 -265q-18 -63 -92 -63q-34 0 -57 19t-27 53zM344 471h568l-284 793h-4z" />
<glyph unicode="B" horiz-adv-x="1100" d="M121 96v1268q0 48 26 72t66 24h327q107 0 194.5 -46t138.5 -125.5t55 -172.5q0 -64 -20 -128t-65 -118t-118 -78v-4q126 -25 196.5 -89.5t94.5 -138.5t24 -140q0 -106 -54 -203t-160 -157q-104 -60 -246 -60h-361q-98 0 -98 96zM299 156h241q104 0 176 36t107 96.5 t37 135.5q0 72 -33.5 134t-101.5 100t-166 38h-260v-540zM299 844h209q75 0 129.5 32.5t82.5 86t28 112.5q0 94 -58 161q-60 68 -162 68h-229v-460z" />
<glyph unicode="C" horiz-adv-x="1216" d="M64 708q0 153 41 291.5t122 244.5t203 166t278 62q74 0 151 -17t144 -52t109 -86q24 -30 24 -70q0 -29 -21.5 -51t-53.5 -24q-33 8 -45 16q-41 30 -81.5 59.5t-91 48.5t-122.5 21q-158 0 -262.5 -88.5t-152.5 -220.5t-50 -264q0 -121 38.5 -257.5t135.5 -236.5 q98 -100 262 -106q108 0 178 28q68 27 166 84q28 16 60 16t50 -22q18 -24 18 -58q0 -46 -28 -67q-79 -74 -198.5 -105.5t-233.5 -31.5q-168 2 -291 69.5t-200 176.5t-113 233.5t-36 240.5z" />
<glyph unicode="D" horiz-adv-x="1292" d="M129 80v1284q0 96 94 96h369q197 0 341.5 -97t220 -263.5t75.5 -364.5q-2 -214 -74.5 -381t-211.5 -260.5t-335 -93.5h-385q-48 0 -71 28t-23 52zM307 156h281q64 0 137.5 23t145.5 87t118.5 183t46.5 299q0 130 -33 233t-95.5 175t-150 110t-194.5 38h-256v-1148z" />
<glyph unicode="E" horiz-adv-x="907" d="M121 96v1264q0 46 22.5 73t52.5 27h552q35 0 55.5 -24t20.5 -60t-21 -60t-59 -24h-445v-481h405q37 0 58.5 -24t21.5 -60q0 -35 -22 -59.5t-62 -24.5h-401v-475h449q36 0 56 -25t20 -63q0 -33 -23 -56.5t-66 -23.5h-526q-56 0 -72 33t-16 63z" />
<glyph unicode="F" horiz-adv-x="831" d="M121 80v1280q0 46 22.5 73t52.5 27h552q30 0 48.5 -25t18.5 -63q0 -34 -21.5 -57t-62.5 -23h-432v-481h389q38 0 59 -24.5t21 -61.5q0 -32 -21 -57t-55 -25h-393v-559q0 -46 -26.5 -71t-63.5 -25q-36 0 -62 25t-26 67z" />
<glyph unicode="G" horiz-adv-x="1368" d="M64 708q0 156 40.5 293.5t122 242t203.5 164.5t278 64q160 0 295.5 -48.5t204.5 -131.5q20 -21 21 -59q0 -32 -25.5 -55.5t-63.5 -24.5q-40 3 -69 27q-83 64 -158.5 100.5t-191.5 36.5q-126 0 -215.5 -53t-144 -139.5t-79 -185.5t-26.5 -195q0 -124 38.5 -258.5 t135.5 -233.5q98 -98 262 -108q118 0 222 49.5t167.5 154t63.5 256.5v64h-261q-76 0 -83 80q7 88 75 88h328q119 0 119 -136v-32q0 -148 -41 -297.5t-178.5 -266t-399.5 -116.5q-168 0 -291.5 68.5t-200 178t-112.5 235.5q-34 124 -36 238z" />
<glyph unicode="H" horiz-adv-x="1368" d="M121 88v1280q0 48 25.5 76t62.5 28q38 0 64 -27.5t26 -76.5v-559h768v559q0 50 26.5 79t61.5 29q39 0 65.5 -28t26.5 -80v-1280q0 -49 -26.5 -74.5t-65.5 -25.5q-35 0 -61.5 26t-26.5 74v564h-768v-564q0 -49 -26.5 -74.5t-63.5 -25.5q-36 0 -62 26t-26 74z" />
<glyph unicode="I" horiz-adv-x="415" d="M121 84v1292q0 96 92 96q36 0 61 -24t25 -72v-1288q0 -57 -27.5 -78.5t-58.5 -21.5q-92 0 -92 96z" />
<glyph unicode="J" horiz-adv-x="721" d="M-16 148q0 75 70 75h2q24 0 48 -8q32 -20 56 -35.5t57 -25.5t86 -10q68 0 113 47t45 153v1036q0 42 25.5 67t62.5 25q38 0 65 -24t27 -68v-999q0 -82 -17.5 -162.5t-90.5 -152.5q-73 -70 -221 -78q-71 0 -148.5 21t-128.5 58t-51 81z" />
<glyph unicode="K" horiz-adv-x="1140" d="M121 80v1296q0 44 25.5 70t62.5 26q38 0 64 -24t26 -68v-536l645 592q44 36 80 36q32 0 54 -24t22 -60q0 -48 -35 -75l-600 -541l663 -641q30 -23 31 -71q0 -31 -24.5 -53.5t-63.5 -22.5q-48 0 -90 44l-682 668v-616q0 -44 -26.5 -68t-63.5 -24q-36 0 -62 25t-26 67z" />
<glyph unicode="L" horiz-adv-x="755" d="M121 108v1268q0 48 26 72t66 24q86 0 86 -104v-1200h369q42 0 73 -20.5t31 -59.5q0 -55 -28 -71.5t-48 -16.5h-491q-33 0 -57 24q-26 24 -27 84z" />
<glyph unicode="M" horiz-adv-x="1708" d="M56 72q4 16 4 40l212 1236q8 62 47 95t89 33q48 0 84 -25t48 -75l312 -1069h4l312 1077q12 44 48 68t80 24q54 0 92 -31q40 -31 48 -89l212 -1252q0 -62 -25 -91t-63 -29q-34 0 -60 21t-32 59l-168 1179l-356 -1187q-18 -72 -88 -72q-30 0 -56.5 20t-35.5 52l-352 1187 l-172 -1187q-6 -41 -34 -65t-66 -24q-32 0 -57 27q-25 28 -27 78z" />
<glyph unicode="N" horiz-adv-x="1364" d="M121 80v1300q0 44 20.5 70t54.5 26q62 0 103 -61l766 -1099h2v1060q0 44 26.5 70t61.5 26q40 0 66 -25t26 -71v-1300q0 -44 -22.5 -68t-56.5 -24q-56 0 -101 57l-764 1099l-4 5v-1069q0 -43 -26.5 -65.5t-63.5 -22.5q-36 0 -62 24t-26 68z" />
<glyph unicode="O" horiz-adv-x="1401" d="M64 727q0 196 75.5 367.5t222 274.5t342.5 103q150 0 270 -59t200.5 -162.5t123 -237t46.5 -286.5q0 -199 -77 -369t-223 -270t-340 -100q-179 0 -325.5 93t-230.5 261.5t-84 384.5zM256 731q0 -134 40.5 -267.5t141 -226.5t266.5 -93q93 0 173.5 36.5t142.5 110t97 184 t36 256.5q0 144 -34.5 255.5t-95.5 184.5t-143 109q-82 37 -176 37q-126 0 -228 -68t-161 -201t-59 -317z" />
<glyph unicode="P" horiz-adv-x="1065" d="M121 80v1284q0 52 28.5 74t59.5 22h363q96 0 180 -30t149 -87t103 -143t40 -196q0 -94 -34 -177t-95 -146.5t-144 -99.5t-175 -36h-297v-469q0 -40 -26.5 -64t-63.5 -24q-36 0 -62 25t-26 67zM299 700h256q136 0 222.5 87t86.5 221q0 139 -86 217.5t-215 78.5h-264v-604z " />
<glyph unicode="Q" horiz-adv-x="1401" d="M64 727q0 196 75.5 367.5t222 274.5t342.5 103q150 0 270 -59t200.5 -162.5t123 -237t46.5 -286.5q0 -128 -34 -247q-34 -120 -94 -212l168 -168q16 -22 17 -57q0 -28 -22.5 -47.5t-57.5 -19.5q-31 0 -61 24l-148 144q-168 -156 -408 -156q-179 0 -325.5 93t-230.5 261.5 t-84 384.5zM256 731q0 -134 40.5 -267.5t141 -226.5t266.5 -93q174 0 292 116l-132 127q-24 25 -32 65q0 29 23 52.5t53 23.5q38 0 69 -24l107 -108q69 154 69 330v5q0 144 -34.5 255.5t-95.5 184.5t-143 109q-82 37 -176 37q-126 0 -228 -68t-161 -201t-59 -317z" />
<glyph unicode="R" horiz-adv-x="1065" d="M121 80v1284q0 52 28.5 74t59.5 22h350q102 0 203.5 -48.5t167.5 -147.5t66 -240q-8 -106 -44 -179t-96 -117t-143 -62.5t-193 -18.5l467 -512q37 -33 37 -79q0 -27 -24 -45.5t-60 -18.5q-52 0 -84 36l-557 613v-565q0 -43 -26.5 -65.5t-63.5 -22.5q-36 0 -62 24t-26 68z M299 784h254q104 0 160.5 35t77.5 92t24 137q0 77 -36.5 135.5t-98 89.5t-135.5 31h-246v-520z" />
<glyph unicode="S" horiz-adv-x="948" d="M41 168q0 37 22 62.5t58 25.5q19 0 51 -16q142 -96 303 -96q74 0 136.5 39.5t99.5 105t37 139.5q0 77 -43 129.5t-108 85.5t-167 68t-127 45q-79 38 -131 78.5t-83 101.5q-31 62 -33 152q0 111 63 199.5t164 136.5t209 48q178 0 292 -76q60 -40 60 -96q0 -32 -24 -54 t-60 -26q-40 10 -101.5 40t-96.5 43.5t-83 13.5q-98 0 -160.5 -58t-74.5 -155q6 -124 172 -196q33 -14 119.5 -44t147.5 -56t117 -65t89 -91q55 -96 55 -208q0 -114 -56 -219t-168 -171t-268 -66q-113 0 -214.5 29.5t-153.5 70.5q-40 28 -43 80z" />
<glyph unicode="T" horiz-adv-x="872" d="M0 1376q3 34 26 59t62 25h731q44 0 66.5 -24t22.5 -60t-21 -60t-59 -24h-283v-1212q0 -42 -27.5 -67t-65.5 -25q-36 0 -62 25t-26 67v1212h-280q-37 0 -59 24t-25 60z" />
<glyph unicode="U" horiz-adv-x="1364" d="M121 559v821q0 42 25.5 67t62.5 25q38 0 64 -24t26 -68v-876q0 -114 51 -196t141.5 -123t204.5 -41q114 4 199 49t130.5 126t45.5 185v876q0 42 24.5 67t59.5 25q39 0 65.5 -24t26.5 -68v-817q0 -176 -60.5 -305.5t-184.5 -199.5t-310 -70q-144 0 -252.5 40t-179 116 t-105 181t-34.5 234z" />
<glyph unicode="V" horiz-adv-x="1140" d="M0 1401q0 40 23 66t57 26q32 0 61 -24.5t43 -67.5l384 -1108h4l384 1112q24 71 96 71q34 0 57 -22t23 -66q0 -16 -8 -48l-452 -1264q-22 -53 -40 -70q-18 -18 -60 -18q-41 0 -63 17t-38 63l-455 1268q-8 24 -16 65z" />
<glyph unicode="W" horiz-adv-x="1671" d="M60 1352q0 62 24 91t60 29q38 0 64 -20q26 -22 32 -60l168 -1179l356 1188q18 71 84 71q34 0 60.5 -19t35.5 -52l352 -1188l172 1188q6 40 34 64q26 24 62 24t60 -27.5t24 -81.5v-36l-212 -1236q-8 -62 -48 -95t-92 -33q-45 0 -81 25q-35 25 -47 71l-312 1073h-4 l-312 -1077q-12 -43 -49 -67.5t-83 -24.5q-50 0 -88 32q-40 32 -48 88z" />
<glyph unicode="X" horiz-adv-x="1216" d="M16 64q6 32 25 61l463 659l-383 539q-28 49 -33 78q0 30 24.5 50.5t55.5 20.5q61 0 92 -48l348 -508l348 508q30 48 88 48q31 0 53.5 -20t22.5 -56t-24 -73l-384 -539l464 -653q24 -33 24 -71q0 -30 -24.5 -51t-59.5 -21q-48 0 -80 45l-428 608l-428 -608 q-28 -45 -84 -45q-28 0 -52 22t-28 54z" />
<glyph unicode="Y" horiz-adv-x="987" d="M0 1401q0 30 24.5 50.5t55.5 20.5q57 0 88 -48l344 -560l344 556q30 52 84 52q34 0 57 -20t23 -56q0 -30 -16 -56l-400 -652v-604q0 -46 -27.5 -73t-64.5 -27q-34 0 -61 27.5t-27 72.5v604l-400 648q-20 40 -24 65z" />
<glyph unicode="Z" horiz-adv-x="1140" d="M43 80q5 34 29 76l760 1148h-664q-38 0 -61.5 22t-26.5 54q8 80 92 80h801q92 0 92 -72q0 -34 -33 -84l-764 -1148h740q42 0 63 -21.5t21 -54.5q0 -32 -24 -56t-64 -24h-856q-97 0 -105 80z" />
<glyph unicode="[" horiz-adv-x="456" d="M156 -72v1444q0 49 26 74.5t70 25.5h139q38 0 59 -24t21 -56q0 -29 -21.5 -52t-53.5 -23h-72v-1329h67q36 0 58 -24t22 -56t-22 -54t-64 -22h-133q-43 0 -69.5 25t-26.5 71z" />
<glyph unicode="\" horiz-adv-x="831" d="M37 1401q0 36 22.5 55.5t52.5 19.5q64 0 88 -52l584 -1312q12 -30 12 -61q0 -32 -22 -51.5t-53 -19.5q-62 0 -84 57l-581 1299q-13 38 -19 65z" />
<glyph unicode="]" horiz-adv-x="456" d="M16 1396q8 76 92 76h132q45 0 70 -24q26 -26 26 -72v-1444q0 -50 -26 -75q-24 -25 -66 -25h-144q-37 0 -58.5 23t-21.5 57q0 30 22 53t54 23h72v1329h-68q-34 0 -57 23.5t-27 55.5z" />
<glyph unicode="^" horiz-adv-x="1229" d="M112 660q8 30 17 48l391 701q38 67 92 67q60 0 100 -71l392 -697q12 -24 12 -48q0 -27 -22 -48t-54 -24q-50 8 -80 64l-344 640l-356 -651q-24 -46 -76 -53q-28 0 -48 20t-24 52z" />
<glyph unicode="_" horiz-adv-x="1024" d="M-64 -196q0 20 16 32t44 12h1028q30 0 47 -15t17 -38q0 -21 -17 -36t-47 -15h-1024q-30 0 -47 17t-17 43z" />
<glyph unicode="`" horiz-adv-x="415" d="M400 1764q0 34 26 59t62 25q24 0 32 -5l272 -115q68 -24 68 -80q0 -32 -23 -52t-65 -23q-6 2 -23 5t-24 5l-260 105q-57 22 -65 76z" />
<glyph unicode="a" horiz-adv-x="1140" d="M72 540q0 184 70 312t179 190t219 62q98 0 169 -34q71 -36 139 -114h4v60q0 40 25 64t59 24q36 0 60 -24t24 -68v-932q0 -46 -24 -69t-60 -23q-34 0 -59 22t-25 62v80h-4q-116 -160 -285 -164q-138 0 -250.5 68t-176.5 194t-64 290zM252 545q0 -106 32 -197.5t98 -147.5 q64 -56 158 -56q164 0 236 117t72 284q0 122 -37 214t-104 140.5t-154 48.5h-4q-146 -6 -220 -116.5t-77 -286.5z" />
<glyph unicode="b" horiz-adv-x="1140" d="M129 80v1409q0 45 25.5 69.5t60.5 24.5q39 0 65.5 -23.5t26.5 -66.5v-537h5q115 148 292 148q136 0 242 -75.5t163.5 -205t57.5 -283.5q-1 -120 -34.5 -221t-97 -176t-153.5 -115q-88 -40 -198 -40q-200 6 -272 147h-5v-59q0 -40 -27 -64t-65 -24q-34 0 -60 25t-26 67z M284 553q3 -2 4 -4.5t1 -3.5q2 -103 32.5 -194t100 -149t182.5 -58q96 4 160 61t94.5 148.5t30.5 195.5q-2 112 -35.5 200t-97.5 140.5t-156 58.5q-88 0 -159 -46.5t-113 -136t-44 -212.5z" />
<glyph unicode="c" horiz-adv-x="907" d="M72 520q0 115 28 218.5t86.5 184.5t152 129.5t216.5 51.5q111 0 190 -30t103 -70q8 -26 8 -40q0 -31 -22 -51.5t-58 -23.5q-10 3 -61.5 20.5t-85 26t-66.5 8.5q-98 0 -166.5 -55.5t-104.5 -144t-40 -185.5q0 -148 64 -273q62 -126 216 -142q20 0 31 -4q24 2 49.5 7 t41.5 11t42 17t39 17q25 12 45 13q29 0 48.5 -21.5t19.5 -54.5q0 -80 -93 -110.5t-192 -30.5q-148 0 -259 71.5t-170.5 193.5t-61.5 267z" />
<glyph unicode="d" horiz-adv-x="1140" d="M72 540q0 114 33 218t94 181t147 121q84 44 186 44q184 0 296 -148h4v537q0 42 26 66t62 24q40 0 66 -24t26 -70v-1409q0 -44 -27 -68t-65 -24q-34 0 -61 24t-27 64v59h-4q-29 -59 -95 -101t-178 -46q-144 0 -252.5 70t-168.5 196t-62 286zM252 549q0 -166 72 -283 q70 -116 212 -122q113 0 183.5 58.5t100.5 149t32 193.5q0 118 -38 210.5t-106.5 142.5t-154.5 50q-102 0 -169 -60t-98.5 -150.5t-33.5 -188.5z" />
<glyph unicode="e" horiz-adv-x="1065" d="M47 545q2 5 3 6l1 4q6 140 64 265.5t165.5 203.5t251.5 80q141 0 250.5 -76t169.5 -202t60 -263q0 -88 -100 -88h-680q2 -108 46 -182.5t119 -111.5t166 -37q160 0 293 112q46 33 68 33q30 0 46.5 -22.5t16.5 -53.5q-1 -33 -27 -65q-60 -64 -170 -112t-237 -48 q-133 0 -231 50t-158 133t-88 179t-29 195zM232 612h600q-3 150 -80.5 241.5t-211.5 94.5q-136 0 -219 -88.5t-89 -247.5z" />
<glyph unicode="f" horiz-adv-x="491" d="M12 1020q6 72 92 72h72v260q0 102 67 162.5t169 68.5q160 0 160 -84q0 -29 -24 -50t-69 -21h-55q-68 0 -68 -80v-256h115q81 0 88 -72q0 -84 -88 -84h-115v-856q0 -44 -27 -68t-65 -24q-36 0 -62 25t-26 67v856h-76q-88 0 -88 84z" />
<glyph unicode="g" horiz-adv-x="1140" d="M72 553q2 160 62 285.5t169 195.5t252 70q201 -6 273 -152h4v60q0 42 26 65t62 23q40 0 66 -24q26 -22 26 -68v-932q0 -148 -57 -266t-166 -185t-261 -69q-178 0 -340 96q-82 52 -88 112q12 64 72 76q59 -8 121 -49q47 -33 113 -57q64 -23 130 -23q150 0 224 115.5 t74 275.5q0 6 -1 20t-1 22h-4q-40 -72 -115 -114t-177 -42q-134 2 -240.5 77t-165 204t-58.5 284zM252 545q2 -114 35 -203.5t98 -141.5t155 -56q138 0 225 104t87 284q0 104 -33 199t-105 156t-178 61q-95 -4 -159 -62t-94.5 -148.5t-30.5 -192.5z" />
<glyph unicode="h" d="M121 80v1409q0 45 25.5 69.5t62.5 24.5q38 0 64 -24t26 -70v-525l4 -4q48 66 125 105t168 39q108 0 197 -54.5t139 -147.5q51 -94 51 -202v-620q0 -44 -26.5 -68t-63.5 -24q-36 0 -62 25t-26 67v596q0 117 -67 193t-183 79q-68 0 -126.5 -30.5t-94 -91t-35.5 -146.5v-600 q0 -44 -26.5 -68t-63.5 -24q-36 0 -62 25t-26 67z" />
<glyph unicode="i" horiz-adv-x="415" d="M96 1360q0 44 33 78t80 34q45 0 78 -33t33 -79q0 -45 -33.5 -79t-77.5 -34q-46 0 -79.5 34.5t-33.5 78.5zM121 80v928q0 45 25.5 70.5t62.5 25.5q38 0 64 -24t26 -68v-932q0 -44 -26.5 -68t-63.5 -24q-36 0 -62 25t-26 67z" />
<glyph unicode="j" horiz-adv-x="415" d="M96 1360q0 44 33 78t80 34q45 0 78 -33t33 -79q0 -45 -33.5 -79t-77.5 -34q-46 0 -79.5 34.5t-33.5 78.5zM121 -348v1356q0 45 25.5 70.5t62.5 25.5q38 0 64 -24t26 -68v-1360q0 -46 -26.5 -71t-63.5 -25q-36 0 -62 25.5t-26 70.5z" />
<glyph unicode="k" horiz-adv-x="907" d="M121 80v1413q0 42 25.5 64t62.5 22q38 0 64 -22.5t26 -67.5v-772l422 354q31 29 71 29q33 0 54.5 -23.5t21.5 -60.5q0 -38 -32 -64l-420 -332l481 -472q35 -34 35 -88q0 -31 -21 -51.5t-55 -20.5q-47 0 -92 45l-465 483v-436q0 -44 -26.5 -68t-63.5 -24q-36 0 -62 25 t-26 67z" />
<glyph unicode="l" horiz-adv-x="415" d="M121 84v1401q0 45 25.5 69.5t62.5 24.5q38 0 64 -23.5t26 -66.5v-1405q0 -46 -26.5 -71t-63.5 -25q-36 0 -62 25.5t-26 70.5z" />
<glyph unicode="m" horiz-adv-x="1704" d="M121 76v940q0 37 26.5 60.5t65.5 23.5q38 0 62 -23t24 -69v-35h4q103 131 281 131q188 -6 292 -184q74 103 158 143.5t186 40.5q101 -2 186.5 -50t135.5 -137t50 -209v-632q0 -40 -27 -64t-66 -24q-34 0 -61 24t-27 64v620q0 80 -30 137.5t-81.5 86t-115.5 28.5 q-103 0 -171.5 -60t-68.5 -192v-620q0 -40 -27 -62t-65 -22q-35 0 -61.5 23t-26.5 61v612q0 133 -66 196.5t-166 63.5q-66 -2 -117.5 -27t-83.5 -78t-32 -135v-632q0 -40 -26.5 -64t-63.5 -24q-35 0 -61.5 24t-26.5 64z" />
<glyph unicode="n" d="M121 80v928q0 45 25.5 70.5t62.5 25.5q38 0 64 -25t26 -71v-44l4 -4q52 69 130.5 106.5t166.5 37.5q102 0 189.5 -46t140.5 -140t53 -230v-608q0 -42 -26 -65t-64 -23q-36 0 -62 23.5t-26 64.5v604q0 122 -74.5 191t-177.5 69q-66 0 -124.5 -30t-94 -90t-35.5 -144v-600 q0 -46 -24.5 -71t-61.5 -25q-38 0 -65 26.5t-27 69.5z" />
<glyph unicode="o" d="M72 545q0 160 61.5 287.5t171.5 199.5t248 72q144 -2 253.5 -79t167.5 -204t58 -276q0 -151 -58 -279t-167 -203t-254 -75q-146 0 -255.5 76t-167.5 204t-58 277zM252 545q0 -154 72 -277.5t225 -123.5q100 0 168 54t100.5 145t34.5 202q0 110 -34 201.5t-101.5 146.5 t-163.5 55q-95 0 -163 -52t-103 -144.5t-35 -206.5z" />
<glyph unicode="p" horiz-adv-x="1140" d="M129 -352v1360q0 45 25.5 70.5t60.5 25.5q39 0 65 -24q27 -24 27 -68v-56h5q74 142 272 148q108 0 197 -40t152.5 -114t98 -175t35.5 -222q0 -157 -57.5 -286t-163.5 -204t-242 -75q-182 0 -292 147h-5v-483q0 -52 -24.5 -80t-63.5 -28q-36 0 -63 29t-27 75zM289 549 q0 -185 82 -296q83 -111 213 -113q8 4 16 4q92 6 156 58.5t97.5 141t35.5 201.5q0 103 -30.5 194t-94.5 148t-160 61q-113 0 -182.5 -58t-99.5 -148.5t-33 -192.5z" />
<glyph unicode="q" horiz-adv-x="1140" d="M68 553q4 161 65 286t170 195t250 70q112 -2 179.5 -46t95.5 -102h4v56q0 42 26 67t62 25q40 0 66 -25t26 -71v-1360q0 -46 -28 -75t-68 -29q-34 0 -59 29t-25 79v483h-8q-46 -68 -122 -107q-76 -40 -170 -40q-134 0 -240 75t-165 205t-59 285zM252 545q0 -112 32.5 -201 t97.5 -142q64 -52 158 -58q88 0 158.5 46t110 135t39.5 211q0 101 -32 195.5t-103 155.5t-181 61q-93 -4 -156.5 -61t-93.5 -148t-30 -194z" />
<glyph unicode="r" horiz-adv-x="643" d="M121 84v924q0 42 25.5 67t62.5 25q38 0 64 -24t26 -68v-92h4q40 71 105.5 128t136.5 60q40 0 71 -26t31 -66q0 -46 -31.5 -68t-92.5 -38t-79 -26q-146 -80 -145 -272v-528q0 -44 -24.5 -68t-61.5 -24q-38 0 -65 25t-27 71z" />
<glyph unicode="s" horiz-adv-x="907" d="M47 196q0 32 22.5 56t55.5 24q26 0 52.5 -14t64.5 -42t55 -36q59 -34 151 -40q88 0 156 36t68 113q0 75 -84 123q-44 28 -158 73t-176 77t-110 90t-48 145q0 80 45 148.5t126 109.5t185 45q100 0 194 -34t138 -74q44 -44 44 -84q0 -30 -24 -54t-56 -26q-35 9 -101.5 46.5 t-97.5 52.5t-78 17q-96 0 -145.5 -39.5t-53.5 -97.5q9 -50 47.5 -85.5t89 -58.5t122 -47t97.5 -36q122 -50 175 -116t53 -161q-2 -84 -47 -155.5t-135 -116.5t-222 -47q-214 0 -356 120q-42 28 -49 88z" />
<glyph unicode="t" horiz-adv-x="491" d="M8 1012q8 80 88 80h80v244q0 40 25.5 62t62.5 22q40 0 66 -22.5t26 -66.5v-239h80q41 0 62.5 -22t21.5 -58q0 -30 -21 -53t-55 -23h-88v-860q0 -41 -28 -64.5t-68 -23.5q-36 0 -60 23.5t-24 68.5v856h-80q-38 0 -61 22t-27 54z" />
<glyph unicode="u" d="M121 412v600q0 42 25.5 67t62.5 25q38 0 64 -24t26 -68v-596q0 -124 62.5 -198t187.5 -74q256 0 256 272v596q0 42 25.5 67t62.5 25q38 0 64 -24t26 -68v-600q0 -112 -45 -209t-143.5 -156t-249.5 -59q-142 0 -237.5 57.5t-141 154t-45.5 212.5z" />
<glyph unicode="v" horiz-adv-x="872" d="M4 1032q0 40 24 64t60 24q72 0 96 -76l252 -768l256 768q18 64 84 64q35 0 61.5 -22.5t26.5 -61.5q0 -12 -8 -43l-324 -917q-16 -39 -37 -57.5t-59 -18.5q-64 0 -92 72l-324 908q-9 26 -16 64z" />
<glyph unicode="w" horiz-adv-x="1515" d="M0 1020q0 36 26 58t62 22q78 0 96 -64l240 -768l4 -4l240 764q13 40 37.5 62t54.5 22q67 0 92 -84l244 -760h4l236 756q24 80 96 80q36 0 60 -24t24 -64q0 -15 -8 -43l-308 -897q-32 -88 -100 -88q-38 0 -62 21.5t-42 78.5l-232 727h-4l-228 -711q-20 -69 -45 -92.5 t-67 -23.5q-38 0 -62 23t-46 85l-304 885q-2 6 -4 19.5t-4 19.5z" />
<glyph unicode="x" horiz-adv-x="948" d="M8 68q7 44 35 84l329 424l-288 376q-24 30 -33 76q0 32 23.5 54t56.5 22q48 0 78 -39l266 -357l265 353q29 43 75 43q32 0 55 -23t23 -61q-1 -32 -25 -64l-288 -380l328 -428q36 -46 36 -101q0 -30 -22 -50.5t-54 -20.5q-53 0 -96 61l-297 411l-299 -415q-34 -45 -88 -45 q-30 0 -53 21t-27 59z" />
<glyph unicode="y" horiz-adv-x="872" d="M33 1020q0 37 23.5 58.5t59.5 21.5q31 0 57.5 -18t35.5 -46l247 -747h5l247 751q18 64 84 64q36 0 60 -23t24 -65q0 -15 -8 -43l-472 -1345q-10 -37 -38 -58.5t-61 -21.5q-30 0 -50.5 22t-23.5 62q5 16 13 56l132 353l-325 932q-2 14 -10 47z" />
<glyph unicode="z" horiz-adv-x="907" d="M33 51q7 53 47 109l520 776h-460q-36 0 -58 22t-26 54q8 80 88 80h616q84 0 84 -64q0 -34 -35 -92l-529 -780h504q40 0 64 -22t24 -58q0 -32 -24 -54t-64 -22h-655q-43 0 -68 10t-28 41z" />
<glyph unicode="{" horiz-adv-x="528" d="M-33 652q0 55 76 73q46 11 70 36.5t33.5 70t9.5 116.5v316q0 92 54 150t146 58h88q32 0 56 -16t24 -47q0 -36 -22 -47t-67 -13.5t-58 -8.5q-53 -18 -53 -103v-301q0 -266 -189 -280v-9q189 -13 189 -279v-300q0 -86 53 -105q14 -7 58.5 -10t66.5 -14t22 -47 q0 -30 -23 -45t-57 -15h-88q-92 0 -146 58.5t-54 150.5v315q0 109 -24 157.5t-89 66.5q-76 20 -76 72z" />
<glyph unicode="|" horiz-adv-x="456" d="M144 72v1431q0 38 24 57t60 19q84 0 84 -80v-1431q0 -37 -25 -58.5t-59 -21.5t-59 22t-25 62z" />
<glyph unicode="}" horiz-adv-x="528" d="M-33 -108q0 37 22 47.5t67 13.5q44 3 60 10q52 19 52 105v300q0 114 43 193t145 86v9q-102 8 -145 87.5t-43 192.5v301q0 85 -52 103q-18 8 -62 10.5t-65.5 13t-21.5 47.5q0 28 25.5 44.5t54.5 16.5h93q88 0 142 -59t54 -149l4 -316q0 -110 22 -158t86 -65q76 -20 76 -78 q0 -49 -76 -67q-66 -17 -87 -65.5t-21 -158.5l-4 -315q0 -90 -54 -149.5t-142 -59.5h-93q-33 0 -56.5 15t-23.5 45z" />
<glyph unicode="~" horiz-adv-x="1229" d="M131 432q0 57 40 110.5t102 87.5q63 34 123 34q112 0 245 -68q123 -68 187 -68q30 0 49 17t46 51t49.5 51t55.5 17q30 0 51 -17t21 -39q0 -58 -40 -113t-102 -89t-126 -34q-116 0 -240 68q-87 42 -120 57q-32 15 -68 15q-29 0 -48 -16t-46.5 -52t-50 -54t-54.5 -18 t-53 17.5t-21 42.5z" />
<glyph unicode="&#xa1;" horiz-adv-x="567" d="M196 996q0 46 30.5 75t76.5 29q44 0 74.5 -29t30.5 -75q0 -42 -31 -72.5t-74 -30.5q-44 0 -75.5 30.5t-31.5 72.5zM213 -293v901q0 39 25.5 63.5t60.5 24.5q42 0 67 -24t25 -68v-897q0 -42 -26.5 -65t-65.5 -23q-36 0 -61 23.5t-25 64.5z" />
<glyph unicode="&#xa2;" horiz-adv-x="907" d="M72 580q6 138 55.5 247t136 178t201.5 91v120q0 40 39 40q22 0 35.5 -12t13.5 -32v-112q102 0 202.5 -29t100.5 -107q0 -31 -22 -51.5t-58 -23.5q-40 14 -79.5 28t-75 22.5t-68.5 8.5v-804q60 0 84.5 8t97.5 40q25 12 45 13q29 0 48.5 -21.5t19.5 -54.5q0 -82 -96 -111.5 t-199 -29.5v-113q0 -17 -13.5 -28t-35.5 -11q-39 0 -39 43v117q-134 28 -222.5 110.5t-129.5 204t-41 269.5zM252 559q0 -124 50 -240.5t163 -158.5v772q-106 -42 -157.5 -143t-55.5 -230z" />
<glyph unicode="&#xa3;" horiz-adv-x="1216" d="M56 727q3 39 25.5 63.5t62.5 24.5h163q-96 160 -102 293q5 108 70 191t169 128q106 45 220 45q116 -6 218.5 -59.5t166 -133t71.5 -155.5q0 -54 -18.5 -68t-77.5 -36q-30 3 -46.5 22t-41.5 70q-50 100 -108 146t-185 46q-104 0 -180 -57t-76 -167q2 -57 22 -100 q21 -43 87 -165h272q37 0 58.5 -24t21.5 -60q0 -34 -22 -59t-58 -25h-232q12 -51 13 -119q0 -183 -172 -360h694q42 0 63 -24t21 -60t-21.5 -60t-62.5 -24h-848q-36 0 -60 20t-28 52q7 54 49 96q56 52 96 101t66 112t26 139q0 41 -16 127h-212q-38 0 -62 23q-22 24 -26 57z " />
<glyph unicode="&#xa4;" d="M41 725q2 90 28 173t71 138l-76 80q-20 20 -23 48q0 29 21.5 51t49.5 22q28 -1 40 -17l88 -92q56 53 137.5 81t175.5 28q90 0 170.5 -28.5t132.5 -80.5l92 92q16 16 39 17q26 0 45.5 -23.5t19.5 -54.5q0 -26 -16 -43l-80 -80q46 -52 73.5 -134t27.5 -175 q-1 -184 -101 -303l80 -80q20 -20 21 -51q0 -28 -23 -49.5t-51 -24.5q-24 7 -35 17l-92 96q-112 -106 -307 -113q-193 6 -305 113l-92 -88q-18 -18 -44 -25q-24 0 -43 23.5t-22 54.5q9 34 21 47l76 80q-95 118 -99 301zM209 731q0 -90 41 -171.5t119 -132t184 -50.5 q86 2 163.5 45.5t125 123.5t47.5 185q0 98 -44 178.5t-121 126.5t-171 48q-84 0 -163 -40.5t-130 -120.5t-51 -192z" />
<glyph unicode="&#xa5;" d="M12 1401q0 29 22 50t54 21q54 0 92 -57l369 -551l363 545q42 63 100 63q68 0 68 -71q0 -19 -19 -65l-336 -521h199q39 0 60 -19q20 -18 20 -48q0 -28 -21 -48t-59 -20h-283v-144h283q38 0 59 -19t21 -48q0 -30 -22 -49q-20 -20 -62 -20h-279v-320q0 -44 -27.5 -68 t-64.5 -24q-36 0 -62 25t-26 67v320h-289q-71 0 -80 65q8 71 80 71h289v144h-285q-39 0 -62 20t-26 48q8 68 84 67h205l-340 521q-17 28 -25 65z" />
<glyph unicode="&#xa6;" horiz-adv-x="319" d="M160 47v1438q0 39 22 61.5t54 22.5t51.5 -18.5t19.5 -51.5v-1452q0 -34 -21.5 -52.5t-53.5 -18.5q-28 0 -50 19t-22 52z" />
<glyph unicode="&#xa7;" horiz-adv-x="1140" d="M51 555q4 108 68 201t188 147q-128 77 -135 237q2 88 51.5 164t148 122t240.5 46q121 -2 213.5 -46.5t144.5 -114t58 -139.5q0 -48 -23 -77t-61 -30q-62 4 -92 80q-27 68 -65.5 105.5t-88.5 51.5q-50 15 -122 15q-95 0 -157.5 -50.5t-66.5 -121.5q6 -69 60 -113 q63 -53 230.5 -131.5t235.5 -114.5t135 -117t67 -204q0 -65 -24.5 -128.5t-74 -120t-121.5 -100.5q131 -91 131 -237q0 -82 -47.5 -154.5t-142.5 -118.5t-229 -50q-112 0 -214 38t-170 101q-70 63 -84 133q-4 20 -4 30q0 42 24 69t60 30q68 -7 96 -69q49 -97 112.5 -137 t175.5 -40q114 0 177.5 47t63.5 117q0 43 -25.5 83t-75.5 66q-54 30 -199 91.5t-233 111.5t-153 131t-72 197zM236 568q7 -130 192 -220l297 -148q178 124 178 269q0 139 -168 215l-270 125q-102 -36 -164.5 -101.5t-64.5 -139.5z" />
<glyph unicode="&#xa8;" horiz-adv-x="415" d="M-92 1348q0 48 32 80t80 32q46 0 77.5 -32t31.5 -80q0 -46 -32 -78q-33 -31 -77 -31q-47 0 -79.5 32t-32.5 77zM289 1348q0 48 31.5 80t79.5 32q47 0 79.5 -32t32.5 -80q0 -45 -33 -77t-79 -32q-47 0 -79 32t-32 77z" />
<glyph unicode="&#xa9;" horiz-adv-x="1640" d="M76 727q0 201 100.5 373t272 272t370.5 100q201 0 372.5 -100t272 -272t100.5 -373q0 -200 -100 -370t-271.5 -269.5t-373.5 -99.5q-200 0 -371.5 99.5t-271.5 269.5t-100 370zM244 727q0 -159 78 -294t210.5 -214t286.5 -79q156 0 287.5 79t208.5 214t77 294 q0 160 -77 295.5t-209 215t-287 79.5q-154 0 -287 -79.5t-210.5 -215t-77.5 -295.5zM387 731q0 130 53.5 234t152.5 163.5t231 59.5q91 0 161 -29t115.5 -71.5t68.5 -86t23 -73.5q0 -26 -19 -43t-49 -17q-37 0 -64.5 35t-51.5 67t-67 57t-117 25q-86 0 -147 -41 t-91.5 -113.5t-30.5 -166.5q0 -84 33.5 -157t94.5 -115.5t141 -42.5q94 0 136.5 34t86 94t77.5 60q68 0 68 -55q0 -40 -44 -105.5t-128 -114.5t-196 -49q-96 0 -177 34.5t-139.5 97t-89.5 144.5t-31 175z" />
<glyph unicode="&#xaa;" horiz-adv-x="739" d="M60 1140q2 88 41.5 165t109.5 122q69 45 157 45q114 0 172 -84l5 -4v36q0 24 19.5 38t47.5 14t48 -14t20 -38v-564q0 -26 -20 -40.5t-48 -14.5q-68 0 -67 51v37h-5q-60 -88 -180 -88q-134 6 -217 100t-83 239zM209 1136q0 -90 47 -151t121 -61q75 0 123.5 62t48.5 150 q0 58 -22.5 106t-62 77t-87.5 29q-74 0 -121 -62t-47 -150z" />
<glyph unicode="&#xab;" horiz-adv-x="796" d="M76 549l204 367q24 52 72 52q26 0 51 -22t25 -49q0 -25 -20 -65l-168 -283l176 -293q16 -40 16 -56q0 -58 -84 -71q-44 4 -64 51zM400 549l204 367q26 52 76 52q26 0 51 -21t25 -48q0 -25 -25 -67l-168 -283l177 -293q16 -28 16 -60q0 -54 -80 -67q-42 4 -68 51z" />
<glyph unicode="&#xac;" horiz-adv-x="1229" d="M92 731q4 36 25 60t55 24h876q84 0 84 -88v-428q0 -36 -24 -56.5t-60 -23.5q-84 8 -84 84v344h-788q-36 0 -58 24.5t-26 59.5z" />
<glyph unicode="&#xad;" horiz-adv-x="721" d="M68 545q3 34 25.5 58.5t58.5 24.5h411q42 0 63 -22t21 -57q0 -34 -21.5 -56t-62.5 -22h-407q-38 0 -62 22t-26 52z" />
<glyph unicode="&#xae;" horiz-adv-x="1640" d="M76 727q0 152 57 288.5t160 239.5t238 160t288 57q152 0 287.5 -57.5t238 -160.5t159 -238.5t56.5 -288.5q0 -200 -99 -370.5t-270 -269.5t-372 -99q-202 0 -373 99.5t-270.5 269t-99.5 370.5zM244 727q0 -158 78.5 -292.5t210.5 -212.5t286 -78t287 78t211.5 212 t78.5 293q0 160 -78.5 295.5t-211.5 215t-287 79.5q-153 0 -285.5 -79.5t-211 -215.5t-78.5 -295zM516 360v744q0 41 43 41h273q104 0 172 -23.5t102 -77.5t34 -145q0 -205 -208 -235l184 -283q16 -27 16 -49q0 -21 -20 -26.5t-55 -8.5q-55 4 -80 47l-197 312h-133v-296 q1 -60 -67 -63q-26 2 -45 18.5t-19 44.5zM647 780h158q62 0 105 8t70.5 36t27.5 84q0 70 -53 91t-140 21h-168v-240z" />
<glyph unicode="&#xb1;" horiz-adv-x="1229" d="M88 641q3 34 28.5 59t67.5 25h348v223q0 42 24 65q22 23 56 23q38 0 63 -22.5t25 -65.5v-223h357q34 0 54.5 -25.5t20.5 -62.5q0 -33 -22 -57q-22 -25 -58 -25h-352v-227q0 -40 -24 -63q-26 -23 -60 -25q-36 3 -60 25.5t-24 62.5v227h-348q-42 0 -67.5 25.5t-28.5 60.5z M92 84q4 37 27 60.5t65 23.5h873q38 0 60.5 -25t22.5 -63q0 -32 -22.5 -56t-60.5 -24h-873q-41 0 -64.5 24t-27.5 60z" />
<glyph unicode="&#xb2;" horiz-adv-x="712" d="M60 637q7 25 16 39l364 456q52 64 52 111q0 49 -40 77t-92 28q-73 0 -122 -54q-50 -54 -50 -114q0 -20 -18 -34t-45 -18q-61 8 -61 72q0 112 82 192t222 80q132 0 202 -64q71 -62 71 -156q0 -88 -78 -172l-295 -359h312q72 1 72 -65q0 -26 -19 -43t-53 -17h-455 q-59 0 -65 41z" />
<glyph unicode="&#xb3;" horiz-adv-x="712" d="M60 796q8 68 56 68q38 0 56 -40q44 -92 112 -107q11 -3 27.5 -5t24.5 -4q68 3 116.5 42.5t51.5 93.5q0 76 -33 111.5t-111 35.5q-88 -1 -88 53q0 26 16 38t56 22q112 30 112 143q-3 49 -39.5 75t-88.5 26q-50 0 -87 -26t-41 -70q0 -22 -17 -37.5t-43 -18.5q-52 6 -52 80 q10 94 78 145t186 51q114 -3 181 -69.5t67 -159.5q0 -56 -28 -104.5t-80 -77.5q80 -24 120 -79.5t40 -129.5q0 -122 -97 -195t-227 -73q-100 0 -169 49t-91 127q-2 6 -4 18t-4 18z" />
<glyph unicode="&#xb4;" horiz-adv-x="415" d="M400 1648q8 58 79 88l242 99q14 8 47 8q32 0 58 -24q26 -23 26 -55q0 -50 -68 -76l-239 -101q-15 -6 -61 -10q-35 0 -58 20q-24 19 -26 51z" />
<glyph unicode="&#xb5;" d="M121 -356v1368q0 42 25.5 67t62.5 25q38 0 64 -24t26 -68v-580q0 -94 20.5 -156t80.5 -97t176 -35q145 2 187 84t42 200v584q0 42 25.5 67t62.5 25q38 0 64 -24t26 -68v-924q0 -49 -26.5 -74.5t-63.5 -25.5q-30 0 -54.5 17t-29.5 42q-48 -25 -117.5 -42t-138.5 -17 q-178 0 -254 96v-436q0 -42 -26.5 -65t-63.5 -23q-36 0 -62 22t-26 62z" />
<glyph unicode="&#xb6;" horiz-adv-x="1229" d="M56 1092q0 110 62.5 194t175.5 129t255 45h424q94 0 94 -104v-1716q0 -40 -24 -60t-60 -20q-34 0 -59 20t-25 56v1687h-235v-1691q0 -34 -25 -55t-59 -21t-59 22t-25 58v1068q-114 0 -215 43t-163 131t-62 214z" />
<glyph unicode="&#xb7;" horiz-adv-x="491" d="M144 620q0 46 33 78.5t79 32.5t79 -31.5t33 -79.5q0 -46 -33.5 -77t-78.5 -31t-78.5 31.5t-33.5 76.5z" />
<glyph unicode="&#xb8;" horiz-adv-x="415" d="M125 -297q0 57 39 57q14 0 52 -10q36 -10 56 -10q72 0 72 55q0 28 -19.5 34.5t-72.5 6.5q-54 0 -60 35q6 24 21 53l55 76h109l-61 -88q6 2 22 4t22 4q56 -3 96 -33.5t44 -78.5q0 -88 -62 -132t-166 -44q-64 0 -105.5 19.5t-41.5 51.5z" />
<glyph unicode="&#xb9;" horiz-adv-x="469" d="M12 1396q8 64 60 64h217q35 0 35 -28v-785q0 -28 -20.5 -43.5t-51.5 -19.5q-72 9 -72 63v689h-108q-25 0 -40.5 17t-19.5 43z" />
<glyph unicode="&#xba;" horiz-adv-x="712" d="M47 1136q0 92 38 170t109 122q70 44 166 44q94 0 165 -44.5t109 -121.5q38 -78 38 -170t-38 -169t-109 -121.5t-165 -44.5q-94 2 -165 46.5t-109.5 121.5t-38.5 167zM192 1136q0 -88 48 -150t120 -62q69 0 116.5 62t47.5 150q0 58 -21.5 107t-59 77t-83.5 28 q-48 0 -86 -28t-60 -76q-22 -50 -22 -108z" />
<glyph unicode="&#xbb;" horiz-adv-x="796" d="M76 196q8 40 20 60l176 293l-172 283q-16 32 -24 65q3 28 25 49q23 22 51 22q52 0 76 -52l204 -367l-209 -369q-17 -48 -67 -51q-36 5 -55 19t-25 48zM400 196q8 40 20 60l176 293l-172 283q-16 32 -24 65q3 28 24.5 49.5t50.5 21.5q52 0 78 -52l203 -367l-203 -369 q-27 -48 -74 -51q-36 5 -55 19q-18 14 -24 48z" />
<glyph unicode="&#xbc;" horiz-adv-x="1648" d="M72 1396q8 64 57 64h215q41 0 41 -28v-785q0 -55 -78 -63q-30 4 -50.5 20t-20.5 43v689h-105q-51 0 -59 60zM381 24q5 32 19 60l560 1348q23 58 72 57q28 0 48 -17q20 -16 20 -44q0 -22 -25 -88l-547 -1307q-26 -61 -76 -61q-63 0 -71 52zM912 244q8 40 32 76l328 495 q38 61 104 61q42 0 69 -22t27 -58v-476h48q28 0 42.5 -17t14.5 -43q0 -25 -14.5 -42.5t-38.5 -17.5h-52v-153q0 -28 -20 -43.5t-51 -15.5q-32 0 -55 18t-23 45v149h-367q-40 0 -44 44zM1084 320h239v407h-2z" />
<glyph unicode="&#xbd;" horiz-adv-x="1648" d="M68 1396q8 64 61 64h215q41 0 41 -28v-785q0 -55 -78 -63q-30 4 -50.5 20t-20.5 43v689h-105q-55 0 -63 60zM316 24q4 26 20 60l561 1348q19 58 71 57q28 0 48 -17q20 -16 20 -44q0 -22 -24 -88l-547 -1307q-26 -61 -78 -61q-59 0 -71 52zM928 41q14 31 16 35l360 460 q52 71 52 111q0 49 -37.5 77t-89.5 28q-76 0 -127 -54q-50 -54 -50 -114q0 -44 -61 -52q-59 8 -59 72q0 112 81 192t224 80q128 0 197 -64t69 -160q1 -83 -71 -173l-300 -354h316q68 1 68 -65q0 -26 -18.5 -43t-53.5 -17h-453q-57 0 -63 41z" />
<glyph unicode="&#xbe;" horiz-adv-x="1648" d="M88 796q10 68 56 68q40 0 56 -40q34 -90 112 -107q12 -3 28 -5t24 -4q68 3 115 42t53 94q0 71 -30.5 109t-114.5 38q-88 -1 -88 53q0 26 16.5 38.5t56.5 21.5q106 30 107 143q-3 50 -37 75.5t-86 25.5q-51 0 -90.5 -26t-42.5 -70q0 -22 -16 -37.5t-39 -18.5q-52 6 -52 80 q10 94 77.5 145t187.5 51q114 -3 180.5 -69.5t66.5 -159.5q0 -54 -28.5 -102.5t-83.5 -79.5q80 -24 120 -81t40 -132q0 -122 -96 -193t-224 -71q-102 0 -169 48t-91 128q-3 9 -4.5 19.5t-3.5 16.5zM508 24q6 42 16 60l560 1348q23 58 71 57q29 0 49 -17q20 -16 20 -44 q0 -24 -24 -88l-548 -1307q-22 -61 -76 -61q-56 0 -68 52zM912 244q8 40 32 76l328 495q38 61 104 61q42 0 69 -22t27 -58v-476h52q54 0 53 -60q0 -26 -13 -43t-36 -17h-56v-153q0 -28 -20 -43.5t-51 -15.5q-32 0 -55 18t-23 45v149h-367q-40 0 -44 44zM1084 320h239v407h-2 z" />
<glyph unicode="&#xbf;" horiz-adv-x="907" d="M37 -20q0 169 88.5 274.5t255.5 141.5v212q0 42 23.5 65t60.5 23q40 0 67 -24t27 -64v-268q0 -46 -22 -66t-60 -28.5t-96 -22.5q-59 -18 -105 -67q-46 -50 -48 -140q4 -16 4 -49q14 -79 74 -129.5t169 -50.5q82 0 140.5 40.5t80.5 108.5q24 84 84 84q39 0 63.5 -25 t24.5 -67q0 -90 -63 -161t-159.5 -109.5t-184.5 -38.5q-98 0 -193.5 40.5t-159.5 122.5t-71 198zM368 996q0 46 28.5 75t74.5 29q44 0 74.5 -29t30.5 -75q0 -42 -31 -72.5t-74 -30.5q-44 0 -73.5 30.5t-29.5 72.5z" />
<glyph unicode="&#xc0;" horiz-adv-x="1251" d="M16 60q2 12 6 26t6 22l472 1260q18 52 52 80t72 28q42 0 76 -27t52 -77l477 -1264q8 -32 8 -52q0 -34 -23.5 -53t-60.5 -19q-30 0 -56 17t-36 50l-97 265h-675l-97 -265q-18 -63 -92 -63q-34 0 -57 19t-27 53zM344 471h568l-284 793h-4zM392 1764q0 34 26 59t62 25 q24 0 32 -5l272 -115q68 -24 68 -80q0 -32 -23 -52t-65 -23q-6 2 -23 5t-24 5l-260 105q-57 22 -65 76z" />
<glyph unicode="&#xc1;" horiz-adv-x="1251" d="M16 60q2 12 6 26t6 22l472 1260q18 52 52 80t72 28q42 0 76 -27t52 -77l477 -1264q8 -32 8 -52q0 -34 -23.5 -53t-60.5 -19q-30 0 -56 17t-36 50l-97 265h-675l-97 -265q-18 -63 -92 -63q-34 0 -57 19t-27 53zM344 471h568l-284 793h-4zM396 1644q8 58 79 88l242 99 q14 8 47 8q32 0 58 -24q26 -23 26 -55q0 -50 -68 -76l-239 -101q-15 -6 -61 -10q-35 0 -58 20q-24 19 -26 51z" />
<glyph unicode="&#xc2;" horiz-adv-x="1251" d="M16 60q2 12 6 26t6 22l472 1260q18 52 52 80t72 28q42 0 76 -27t52 -77l477 -1264q8 -32 8 -52q0 -34 -23.5 -53t-60.5 -19q-30 0 -56 17t-36 50l-97 265h-675l-97 -265q-18 -63 -92 -63q-34 0 -57 19t-27 53zM300 1641q0 61 48 79l273 116l266 -116q26 -8 39.5 -31 t13.5 -48q0 -30 -20 -51q-20 -20 -56 -23q-28 7 -48 13l-195 79l-193 -75q-18 -8 -59 -17q-32 0 -50.5 22t-18.5 52zM344 471h568l-284 793h-4z" />
<glyph unicode="&#xc3;" horiz-adv-x="1251" d="M16 60q2 12 6 26t6 22l472 1260q18 52 52 80t72 28q42 0 76 -27t52 -77l477 -1264q8 -32 8 -52q0 -34 -23.5 -53t-60.5 -19q-30 0 -56 17t-36 50l-97 265h-675l-97 -265q-18 -63 -92 -63q-34 0 -57 19t-27 53zM324 1668q0 44 20 69q54 59 160 59q44 0 120 -19t104 -21 q20 2 64 21t68 19q28 0 48 -24t20 -52q0 -64 -62 -96t-134 -36q-8 4 -19 4q-28 0 -94.5 18t-102.5 18q-27 0 -73 -19q-45 -19 -55 -21q-33 16 -48.5 32t-15.5 48zM344 471h568l-284 793h-4z" />
<glyph unicode="&#xc4;" horiz-adv-x="1251" d="M16 60q2 12 6 26t6 22l472 1260q18 52 52 80t72 28q42 0 76 -27t52 -77l477 -1264q8 -32 8 -52q0 -34 -23.5 -53t-60.5 -19q-30 0 -56 17t-36 50l-97 265h-675l-97 -265q-18 -63 -92 -63q-34 0 -57 19t-27 53zM328 1676q0 48 32 80t80 32q46 0 77.5 -32t31.5 -80 q0 -46 -32 -78q-33 -31 -77 -31q-47 0 -79.5 32t-32.5 77zM344 471h568l-284 793h-4zM709 1676q0 48 31.5 80t79.5 32q47 0 79.5 -32t32.5 -80q0 -45 -33 -77t-79 -32q-47 0 -79 32t-32 77z" />
<glyph unicode="&#xc5;" horiz-adv-x="1251" d="M16 60q2 12 6 26t6 22l472 1260q18 52 52 80t72 28q42 0 76 -27t52 -77l477 -1264q8 -32 8 -52q0 -34 -23.5 -53t-60.5 -19q-30 0 -56 17t-36 50l-97 265h-675l-97 -265q-18 -63 -92 -63q-34 0 -57 19t-27 53zM344 471h568l-284 793h-4zM428 1700q0 80 57 137.5t136 57.5 q80 0 137 -57q58 -58 58 -138q0 -79 -57.5 -135.5t-137.5 -56.5q-78 0 -135.5 57t-57.5 135zM528 1700q0 -39 26.5 -65.5t66.5 -26.5q38 0 66 26t28 66q0 38 -28 67.5t-66 29.5q-39 0 -66 -29q-27 -30 -27 -68z" />
<glyph unicode="&#xc6;" horiz-adv-x="1515" d="M-16 56q0 23 16 65l647 1267q28 48 51.5 60t65.5 12h600q40 0 62 -24t22 -60t-22.5 -60t-65.5 -24h-416v-477h404q39 0 59.5 -26t20.5 -64q0 -34 -22 -58t-62 -24h-400v-475h440q40 0 64 -25t24 -63q0 -32 -25 -56t-67 -24h-520q-96 0 -96 100v216h-471l-149 -283 q-20 -45 -80 -45q-32 0 -56 18t-24 50zM368 471h396v781h-4z" />
<glyph unicode="&#xc7;" horiz-adv-x="1216" d="M64 708q0 153 41 291.5t122 244.5t203 166t278 62q74 0 151 -17t144 -52t109 -86q24 -30 24 -70q0 -29 -21.5 -51t-53.5 -24q-33 8 -45 16q-41 30 -81.5 59.5t-91 48.5t-122.5 21q-158 0 -262.5 -88.5t-152.5 -220.5t-50 -264q0 -121 38.5 -257.5t135.5 -236.5 q98 -100 262 -106q108 0 178 28q68 27 166 84q28 16 60 16t50 -22q18 -24 18 -58q0 -46 -28 -67q-138 -127 -401 -137l-51 -76q6 2 21 4t22 4q58 -3 98.5 -33.5t42.5 -78.5q0 -88 -62 -132t-165 -44q-66 0 -107.5 19.5t-41.5 51.5q0 22 11 39.5t33 17.5q10 0 47 -10t58 -10 q71 0 71 55q0 28 -18 34.5t-54 7.5t-56 7t-25 31q5 16 21 49l48 68q-148 16 -256 88t-176.5 179t-100 224t-31.5 225z" />
<glyph unicode="&#xc8;" horiz-adv-x="907" d="M121 96v1264q0 46 22.5 73t52.5 27h552q35 0 55.5 -24t20.5 -60t-21 -60t-59 -24h-445v-481h405q37 0 58.5 -24t21.5 -60q0 -35 -22 -59.5t-62 -24.5h-401v-475h449q36 0 56 -25t20 -63q0 -33 -23 -56.5t-66 -23.5h-526q-56 0 -72 33t-16 63zM236 1764q0 34 26 59t62 25 q24 0 32 -5l272 -115q68 -24 68 -80q0 -32 -23 -52t-65 -23q-6 2 -23 5t-24 5l-260 105q-57 22 -65 76z" />
<glyph unicode="&#xc9;" horiz-adv-x="907" d="M121 96v1264q0 46 22.5 73t52.5 27h552q35 0 55.5 -24t20.5 -60t-21 -60t-59 -24h-445v-481h405q37 0 58.5 -24t21.5 -60q0 -35 -22 -59.5t-62 -24.5h-401v-475h449q36 0 56 -25t20 -63q0 -33 -23 -56.5t-66 -23.5h-526q-56 0 -72 33t-16 63zM224 1644q8 58 79 88l242 99 q14 8 47 8q32 0 58 -24q26 -23 26 -55q0 -50 -68 -76l-239 -101q-15 -6 -61 -10q-35 0 -58 20q-24 19 -26 51z" />
<glyph unicode="&#xca;" horiz-adv-x="907" d="M121 96v1264q0 46 22.5 73t52.5 27h552q35 0 55.5 -24t20.5 -60t-21 -60t-59 -24h-445v-481h405q37 0 58.5 -24t21.5 -60q0 -35 -22 -59.5t-62 -24.5h-401v-475h449q36 0 56 -25t20 -63q0 -33 -23 -56.5t-66 -23.5h-526q-56 0 -72 33t-16 63zM140 1641q0 61 48 79 l273 116l266 -116q26 -8 39.5 -31t13.5 -48q0 -30 -20 -51q-20 -20 -56 -23q-28 7 -48 13l-195 79l-193 -75q-18 -8 -59 -17q-32 0 -50.5 22t-18.5 52z" />
<glyph unicode="&#xcb;" horiz-adv-x="907" d="M121 96v1264q0 46 22.5 73t52.5 27h552q35 0 55.5 -24t20.5 -60t-21 -60t-59 -24h-445v-481h405q37 0 58.5 -24t21.5 -60q0 -35 -22 -59.5t-62 -24.5h-401v-475h449q36 0 56 -25t20 -63q0 -33 -23 -56.5t-66 -23.5h-526q-56 0 -72 33t-16 63zM160 1672q0 48 32 80t80 32 q46 0 77.5 -32t31.5 -80q0 -46 -32 -78q-33 -31 -77 -31q-47 0 -79.5 32t-32.5 77zM541 1672q0 48 31.5 80t79.5 32q47 0 79.5 -32t32.5 -80q0 -45 -33 -77t-79 -32q-47 0 -79 32t-32 77z" />
<glyph unicode="&#xcc;" horiz-adv-x="415" d="M-16 1752q0 34 26 59t62 25q24 0 32 -5l272 -115q68 -24 68 -80q0 -32 -23 -52t-65 -23q-6 2 -23 5t-24 5l-260 105q-57 22 -65 76zM121 84v1292q0 96 92 96q36 0 61 -24t25 -72v-1288q0 -57 -27.5 -78.5t-58.5 -21.5q-92 0 -92 96z" />
<glyph unicode="&#xcd;" horiz-adv-x="415" d="M-36 1640q8 58 79 88l242 99q14 8 47 8q32 0 58 -24q26 -23 26 -55q0 -50 -68 -76l-239 -101q-15 -6 -61 -10q-35 0 -58 20q-24 19 -26 51zM121 84v1292q0 96 92 96q36 0 61 -24t25 -72v-1288q0 -57 -27.5 -78.5t-58.5 -21.5q-92 0 -92 96z" />
<glyph unicode="&#xce;" horiz-adv-x="415" d="M-112 1641q0 61 48 79l273 116l266 -116q26 -8 39.5 -31t13.5 -48q0 -30 -20 -51q-20 -20 -56 -23q-28 7 -48 13l-195 79l-193 -75q-18 -8 -59 -17q-32 0 -50.5 22t-18.5 52zM121 84v1292q0 96 92 96q36 0 61 -24t25 -72v-1288q0 -57 -27.5 -78.5t-58.5 -21.5 q-92 0 -92 96z" />
<glyph unicode="&#xcf;" horiz-adv-x="415" d="M-92 1676q0 48 32 80t80 32q46 0 77.5 -32t31.5 -80q0 -46 -32 -78q-33 -31 -77 -31q-47 0 -79.5 32t-32.5 77zM121 84v1292q0 96 92 96q36 0 61 -24t25 -72v-1288q0 -57 -27.5 -78.5t-58.5 -21.5q-92 0 -92 96zM289 1676q0 48 31.5 80t79.5 32q47 0 79.5 -32t32.5 -80 q0 -45 -33 -77t-79 -32q-47 0 -79 32t-32 77z" />
<glyph unicode="&#xd0;" horiz-adv-x="1292" d="M-37 735q0 32 22 54t62 22h82v553q0 96 94 96h369q197 0 341.5 -97t220 -263.5t75.5 -364.5q-2 -214 -74.5 -381t-211.5 -260.5t-335 -93.5h-385q-48 0 -71 28t-23 52v580h-86q-36 0 -58 22.5t-22 52.5zM307 156h281q64 0 137.5 23t145.5 87t118.5 183t46.5 299 q0 130 -33 233t-95.5 175t-150 110t-194.5 38h-256v-493h252q42 0 63 -21.5t21 -54.5q0 -32 -21.5 -53.5t-62.5 -21.5h-252v-504z" />
<glyph unicode="&#xd1;" horiz-adv-x="1364" d="M121 80v1300q0 44 20.5 70t54.5 26q62 0 103 -61l766 -1099h2v1060q0 44 26.5 70t61.5 26q40 0 66 -25t26 -71v-1300q0 -44 -22.5 -68t-56.5 -24q-56 0 -101 57l-764 1099l-4 5v-1069q0 -43 -26.5 -65.5t-63.5 -22.5q-36 0 -62 24t-26 68zM383 1668q0 44 20 69 q54 59 160 59q44 0 120 -19t104 -21q20 2 64 21t68 19q28 0 48 -24t20 -52q0 -64 -62 -96t-134 -36q-8 4 -19 4q-28 0 -94.5 18t-102.5 18q-27 0 -73 -19q-45 -19 -55 -21q-33 16 -48.5 32t-15.5 48z" />
<glyph unicode="&#xd2;" horiz-adv-x="1401" d="M64 727q0 196 75.5 367.5t222 274.5t342.5 103q150 0 270 -59t200.5 -162.5t123 -237t46.5 -286.5q0 -199 -77 -369t-223 -270t-340 -100q-179 0 -325.5 93t-230.5 261.5t-84 384.5zM256 731q0 -134 40.5 -267.5t141 -226.5t266.5 -93q93 0 173.5 36.5t142.5 110t97 184 t36 256.5q0 144 -34.5 255.5t-95.5 184.5t-143 109q-82 37 -176 37q-126 0 -228 -68t-161 -201t-59 -317zM476 1768q0 34 26 59t62 25q24 0 32 -5l272 -115q68 -24 68 -80q0 -32 -23 -52t-65 -23q-6 2 -23 5t-24 5l-260 105q-57 22 -65 76z" />
<glyph unicode="&#xd3;" horiz-adv-x="1401" d="M64 727q0 196 75.5 367.5t222 274.5t342.5 103q150 0 270 -59t200.5 -162.5t123 -237t46.5 -286.5q0 -199 -77 -369t-223 -270t-340 -100q-179 0 -325.5 93t-230.5 261.5t-84 384.5zM256 731q0 -134 40.5 -267.5t141 -226.5t266.5 -93q93 0 173.5 36.5t142.5 110t97 184 t36 256.5q0 144 -34.5 255.5t-95.5 184.5t-143 109q-82 37 -176 37q-126 0 -228 -68t-161 -201t-59 -317zM476 1648q8 58 79 88l242 99q14 8 47 8q32 0 58 -24q26 -23 26 -55q0 -50 -68 -76l-239 -101q-15 -6 -61 -10q-35 0 -58 20q-24 19 -26 51z" />
<glyph unicode="&#xd4;" horiz-adv-x="1401" d="M64 727q0 196 75.5 367.5t222 274.5t342.5 103q150 0 270 -59t200.5 -162.5t123 -237t46.5 -286.5q0 -199 -77 -369t-223 -270t-340 -100q-179 0 -325.5 93t-230.5 261.5t-84 384.5zM256 731q0 -134 40.5 -267.5t141 -226.5t266.5 -93q93 0 173.5 36.5t142.5 110t97 184 t36 256.5q0 144 -34.5 255.5t-95.5 184.5t-143 109q-82 37 -176 37q-126 0 -228 -68t-161 -201t-59 -317zM384 1645q0 61 48 79l273 116l266 -116q26 -8 39.5 -31t13.5 -48q0 -30 -20 -51q-20 -20 -56 -23q-28 7 -48 13l-195 79l-193 -75q-18 -8 -59 -17q-32 0 -50.5 22 t-18.5 52z" />
<glyph unicode="&#xd5;" horiz-adv-x="1401" d="M64 727q0 196 75.5 367.5t222 274.5t342.5 103q150 0 270 -59t200.5 -162.5t123 -237t46.5 -286.5q0 -199 -77 -369t-223 -270t-340 -100q-179 0 -325.5 93t-230.5 261.5t-84 384.5zM256 731q0 -134 40.5 -267.5t141 -226.5t266.5 -93q93 0 173.5 36.5t142.5 110t97 184 t36 256.5q0 144 -34.5 255.5t-95.5 184.5t-143 109q-82 37 -176 37q-126 0 -228 -68t-161 -201t-59 -317zM400 1668q0 44 20 69q54 59 160 59q44 0 120 -19t104 -21q20 2 64 21t68 19q28 0 48 -24t20 -52q0 -64 -62 -96t-134 -36q-8 4 -19 4q-28 0 -94.5 18t-102.5 18 q-27 0 -73 -19q-45 -19 -55 -21q-33 16 -48.5 32t-15.5 48z" />
<glyph unicode="&#xd6;" horiz-adv-x="1401" d="M64 727q0 196 75.5 367.5t222 274.5t342.5 103q150 0 270 -59t200.5 -162.5t123 -237t46.5 -286.5q0 -199 -77 -369t-223 -270t-340 -100q-179 0 -325.5 93t-230.5 261.5t-84 384.5zM256 731q0 -134 40.5 -267.5t141 -226.5t266.5 -93q93 0 173.5 36.5t142.5 110t97 184 t36 256.5q0 144 -34.5 255.5t-95.5 184.5t-143 109q-82 37 -176 37q-126 0 -228 -68t-161 -201t-59 -317zM404 1676q0 48 32 80t80 32q46 0 77.5 -32t31.5 -80q0 -46 -32 -78q-33 -31 -77 -31q-47 0 -79.5 32t-32.5 77zM785 1676q0 48 31.5 80t79.5 32q47 0 79.5 -32 t32.5 -80q0 -45 -33 -77t-79 -32q-47 0 -79 32t-32 77z" />
<glyph unicode="&#xd8;" horiz-adv-x="1401" d="M37 24q7 30 23 52l145 168q-68 100 -104.5 222.5t-36.5 260.5q0 196 75.5 367.5t222 274.5t342.5 103q244 0 412 -164l127 152q23 29 57 29q27 0 46 -17q18 -16 18 -44q0 -14 -16 -40l-148 -172q138 -197 144 -489q0 -199 -77 -369t-223 -270t-340 -100q-118 0 -224.5 42 t-190.5 122l-125 -148q-31 -37 -72 -37q-21 0 -36.5 16.5t-18.5 40.5zM256 731q0 -195 68 -344l684 797q-120 134 -304 133q-126 0 -228 -68t-161 -201t-59 -317zM396 276q116 -132 308 -132q92 0 174 37t144 111t96.5 184t34.5 255q1 196 -73 340z" />
<glyph unicode="&#xd9;" horiz-adv-x="1364" d="M121 559v821q0 42 25.5 67t62.5 25q38 0 64 -24t26 -68v-876q0 -114 51 -196t141.5 -123t204.5 -41q114 4 199 49t130.5 126t45.5 185v876q0 42 24.5 67t59.5 25q39 0 65.5 -24t26.5 -68v-817q0 -176 -60.5 -305.5t-184.5 -199.5t-310 -70q-144 0 -252.5 40t-179 116 t-105 181t-34.5 234zM456 1764q0 34 26 59t62 25q24 0 32 -5l272 -115q68 -24 68 -80q0 -32 -23 -52t-65 -23q-6 2 -23 5t-24 5l-260 105q-57 22 -65 76z" />
<glyph unicode="&#xda;" horiz-adv-x="1364" d="M121 559v821q0 42 25.5 67t62.5 25q38 0 64 -24t26 -68v-876q0 -114 51 -196t141.5 -123t204.5 -41q114 4 199 49t130.5 126t45.5 185v876q0 42 24.5 67t59.5 25q39 0 65.5 -24t26.5 -68v-817q0 -176 -60.5 -305.5t-184.5 -199.5t-310 -70q-144 0 -252.5 40t-179 116 t-105 181t-34.5 234zM456 1648q8 58 79 88l242 99q14 8 47 8q32 0 58 -24q26 -23 26 -55q0 -50 -68 -76l-239 -101q-15 -6 -61 -10q-35 0 -58 20q-24 19 -26 51z" />
<glyph unicode="&#xdb;" horiz-adv-x="1364" d="M121 559v821q0 42 25.5 67t62.5 25q38 0 64 -24t26 -68v-876q0 -114 51 -196t141.5 -123t204.5 -41q114 4 199 49t130.5 126t45.5 185v876q0 42 24.5 67t59.5 25q39 0 65.5 -24t26.5 -68v-817q0 -176 -60.5 -305.5t-184.5 -199.5t-310 -70q-144 0 -252.5 40t-179 116 t-105 181t-34.5 234zM359 1641q0 61 48 79l273 116l266 -116q26 -8 39.5 -31t13.5 -48q0 -30 -20 -51q-20 -20 -56 -23q-28 7 -48 13l-195 79l-193 -75q-18 -8 -59 -17q-32 0 -50.5 22t-18.5 52z" />
<glyph unicode="&#xdc;" horiz-adv-x="1364" d="M121 559v821q0 42 25.5 67t62.5 25q38 0 64 -24t26 -68v-876q0 -114 51 -196t141.5 -123t204.5 -41q114 4 199 49t130.5 126t45.5 185v876q0 42 24.5 67t59.5 25q39 0 65.5 -24t26.5 -68v-817q0 -176 -60.5 -305.5t-184.5 -199.5t-310 -70q-144 0 -252.5 40t-179 116 t-105 181t-34.5 234zM383 1676q0 48 32 80t80 32q46 0 77.5 -32t31.5 -80q0 -46 -32 -78q-33 -31 -77 -31q-47 0 -79.5 32t-32.5 77zM764 1676q0 48 31.5 80t79.5 32q47 0 79.5 -32t32.5 -80q0 -45 -33 -77t-79 -32q-47 0 -79 32t-32 77z" />
<glyph unicode="&#xdd;" horiz-adv-x="987" d="M0 1401q0 30 24.5 50.5t55.5 20.5q57 0 88 -48l344 -560l344 556q30 52 84 52q34 0 57 -20t23 -56q0 -30 -16 -56l-400 -652v-604q0 -46 -27.5 -73t-64.5 -27q-34 0 -61 27.5t-27 72.5v604l-400 648q-20 40 -24 65zM288 1652q8 58 79 88l242 99q14 8 47 8q32 0 58 -24 q26 -23 26 -55q0 -50 -68 -76l-239 -101q-15 -6 -61 -10q-35 0 -58 20q-24 19 -26 51z" />
<glyph unicode="&#xde;" horiz-adv-x="1065" d="M121 84v1048v244q0 48 26 76t62 28q38 0 64 -27t26 -77v-147h273q142 0 249.5 -61t165 -165.5t57.5 -230.5q0 -124 -61 -228t-168 -164t-239 -60h-277v-236q0 -49 -26.5 -76.5t-63.5 -27.5q-36 0 -62 28t-26 76zM299 475h264q88 0 156.5 39.5t106.5 107.5t38 150 q0 76 -31 145t-100.5 113.5t-177.5 44.5h-256v-600z" />
<glyph unicode="&#xdf;" horiz-adv-x="1140" d="M121 72v1104q0 102 42.5 194t131 151.5t217.5 61.5q106 0 200 -49.5t151 -137.5t57 -196q0 -222 -156 -336q136 -38 204 -155t68 -261q0 -110 -50 -217t-146 -175t-220 -68q-108 6 -108 92q11 68 80 68q157 5 204.5 97.5t47.5 219.5q0 119 -62 207t-182 96 q-54 3 -75 21.5t-21 58.5q0 34 18 51t66 29q82 24 112 73t40 163q0 120 -60 190t-160 74q-96 0 -145 -55t-63 -115t-15 -109l2 -3v-1v-1073q0 -40 -26.5 -62t-63.5 -22q-36 0 -62 22.5t-26 61.5z" />
<glyph unicode="&#xe0;" horiz-adv-x="1140" d="M72 540q0 184 70 312t179 190t219 62q98 0 169 -34q71 -36 139 -114h4v60q0 40 25 64t59 24q36 0 60 -24t24 -68v-932q0 -46 -24 -69t-60 -23q-34 0 -59 22t-25 62v80h-4q-116 -160 -285 -164q-138 0 -250.5 68t-176.5 194t-64 290zM252 545q0 -106 32 -197.5t98 -147.5 q64 -56 158 -56q164 0 236 117t72 284q0 122 -37 214t-104 140.5t-154 48.5h-4q-146 -6 -220 -116.5t-77 -286.5zM336 1444q0 34 26 59t62 25q24 0 32 -5l272 -115q68 -24 68 -80q0 -32 -23 -52t-65 -23q-6 2 -23 5t-24 5l-260 105q-57 22 -65 76z" />
<glyph unicode="&#xe1;" horiz-adv-x="1140" d="M72 540q0 184 70 312t179 190t219 62q98 0 169 -34q71 -36 139 -114h4v60q0 40 25 64t59 24q36 0 60 -24t24 -68v-932q0 -46 -24 -69t-60 -23q-34 0 -59 22t-25 62v80h-4q-116 -160 -285 -164q-138 0 -250.5 68t-176.5 194t-64 290zM252 545q0 -106 32 -197.5t98 -147.5 q64 -56 158 -56q164 0 236 117t72 284q0 122 -37 214t-104 140.5t-154 48.5h-4q-146 -6 -220 -116.5t-77 -286.5zM340 1320q8 58 79 88l242 99q14 8 47 8q32 0 58 -24q26 -23 26 -55q0 -50 -68 -76l-239 -101q-15 -6 -61 -10q-35 0 -58 20q-24 19 -26 51z" />
<glyph unicode="&#xe2;" horiz-adv-x="1140" d="M72 540q0 184 70 312t179 190t219 62q98 0 169 -34q71 -36 139 -114h4v60q0 40 25 64t59 24q36 0 60 -24t24 -68v-932q0 -46 -24 -69t-60 -23q-34 0 -59 22t-25 62v80h-4q-116 -160 -285 -164q-138 0 -250.5 68t-176.5 194t-64 290zM248 1313q0 61 48 79l273 116 l266 -116q26 -8 39.5 -31t13.5 -48q0 -30 -20 -51q-20 -20 -56 -23q-28 7 -48 13l-195 79l-193 -75q-18 -8 -59 -17q-32 0 -50.5 22t-18.5 52zM252 545q0 -106 32 -197.5t98 -147.5q64 -56 158 -56q164 0 236 117t72 284q0 122 -37 214t-104 140.5t-154 48.5h-4 q-146 -6 -220 -116.5t-77 -286.5z" />
<glyph unicode="&#xe3;" horiz-adv-x="1140" d="M72 540q0 184 70 312t179 190t219 62q98 0 169 -34q71 -36 139 -114h4v60q0 40 25 64t59 24q36 0 60 -24t24 -68v-932q0 -46 -24 -69t-60 -23q-34 0 -59 22t-25 62v80h-4q-116 -160 -285 -164q-138 0 -250.5 68t-176.5 194t-64 290zM252 545q0 -106 32 -197.5t98 -147.5 q64 -56 158 -56q164 0 236 117t72 284q0 122 -37 214t-104 140.5t-154 48.5h-4q-146 -6 -220 -116.5t-77 -286.5zM272 1340q0 44 20 69q54 59 160 59q44 0 120 -19t104 -21q20 2 64 21t68 19q28 0 48 -24t20 -52q0 -64 -62 -96t-134 -36q-8 4 -19 4q-28 0 -94.5 18 t-102.5 18q-27 0 -73 -19q-45 -19 -55 -21q-33 16 -48.5 32t-15.5 48z" />
<glyph unicode="&#xe4;" horiz-adv-x="1140" d="M72 540q0 184 70 312t179 190t219 62q98 0 169 -34q71 -36 139 -114h4v60q0 40 25 64t59 24q36 0 60 -24t24 -68v-932q0 -46 -24 -69t-60 -23q-34 0 -59 22t-25 62v80h-4q-116 -160 -285 -164q-138 0 -250.5 68t-176.5 194t-64 290zM252 545q0 -106 32 -197.5t98 -147.5 q64 -56 158 -56q164 0 236 117t72 284q0 122 -37 214t-104 140.5t-154 48.5h-4q-146 -6 -220 -116.5t-77 -286.5zM268 1348q0 48 32 80t80 32q46 0 77.5 -32t31.5 -80q0 -46 -32 -78q-33 -31 -77 -31q-47 0 -79.5 32t-32.5 77zM649 1348q0 48 31.5 80t79.5 32q47 0 79.5 -32 t32.5 -80q0 -45 -33 -77t-79 -32q-47 0 -79 32t-32 77z" />
<glyph unicode="&#xe5;" horiz-adv-x="1140" d="M72 540q0 184 70 312t179 190t219 62q98 0 169 -34q71 -36 139 -114h4v60q0 40 25 64t59 24q36 0 60 -24t24 -68v-932q0 -46 -24 -69t-60 -23q-34 0 -59 22t-25 62v80h-4q-116 -160 -285 -164q-138 0 -250.5 68t-176.5 194t-64 290zM252 545q0 -106 32 -197.5t98 -147.5 q64 -56 158 -56q164 0 236 117t72 284q0 122 -37 214t-104 140.5t-154 48.5h-4q-146 -6 -220 -116.5t-77 -286.5zM376 1392q0 80 57 137.5t136 57.5q80 0 137 -57q58 -58 58 -138q0 -79 -57.5 -135.5t-137.5 -56.5q-78 0 -135.5 57t-57.5 135zM476 1392q0 -39 26.5 -65.5 t66.5 -26.5q38 0 66 26t28 66q0 38 -28 67.5t-66 29.5q-39 0 -66 -29q-27 -30 -27 -68z" />
<glyph unicode="&#xe6;" horiz-adv-x="1820" d="M72 540q0 177 70 305.5t179 193.5t219 65q87 0 168 -40t140 -108h4v60q0 38 24 61t56 23q39 0 64 -22q24 -22 24 -66v-44h4q38 48 119 92t174 44q129 -4 232.5 -81.5t161 -199t57.5 -247.5q0 -54 -24 -77.5t-77 -23.5h-663q4 -96 47 -170.5t115 -115.5t157 -41 q90 0 161 32q70 32 160 100q26 8 36 9q30 0 47.5 -22.5t17.5 -53.5q-1 -22 -9 -45q-51 -74 -160.5 -125t-219.5 -55q-231 0 -332 133h-4v-41q0 -44 -24.5 -68t-59.5 -24q-34 0 -59 24t-25 64v76h-4q-28 -42 -70 -78t-102 -59t-131 -23q-145 0 -251.5 76t-163 202t-58.5 270z M252 549q0 -116 35 -208.5t103 -144.5t163 -52q100 0 167.5 56.5t99.5 146t32 189.5q0 186 -82 299t-225 113q-112 -4 -178 -71.5t-90.5 -156.5t-24.5 -171zM1016 612h571q-3 160 -85 248t-198 88q-126 0 -204 -84q-78 -86 -84 -252z" />
<glyph unicode="&#xe7;" horiz-adv-x="907" d="M72 520q0 246 108 392q126 187 375 192q102 0 201.5 -31t99.5 -109q0 -31 -22 -51.5t-58 -23.5q-10 3 -61.5 20.5t-85 26t-66.5 8.5q-98 0 -166.5 -55.5t-104.5 -144t-40 -185.5q0 -148 64 -273q62 -126 216 -142q20 0 31 -4q24 2 49.5 7t41.5 11t42 17t39 17 q25 12 45 13q29 0 48.5 -21.5t19.5 -54.5q0 -74 -89 -107.5t-175 -33.5l-52 -76q7 2 22 4q16 2 22 4q56 -3 96 -33q39 -29 45 -79q0 -89 -62.5 -132.5t-166.5 -43.5q-67 0 -109.5 19.5t-42.5 51.5q0 20 12 38.5t33 18.5q14 0 51 -10q38 -10 56 -10q72 0 71 55 q0 28 -18.5 34.5t-71.5 6.5q-33 0 -46 9t-15 30q4 16 20 49l47 72q-106 16 -183.5 70t-124.5 129.5t-70 160t-25 164.5z" />
<glyph unicode="&#xe8;" horiz-adv-x="1065" d="M47 545q2 5 3 6l1 4q6 140 64 265.5t165.5 203.5t251.5 80q141 0 250.5 -76t169.5 -202t60 -263q0 -88 -100 -88h-680q2 -108 46 -182.5t119 -111.5t166 -37q160 0 293 112q46 33 68 33q30 0 46.5 -22.5t16.5 -53.5q-1 -33 -27 -65q-60 -64 -170 -112t-237 -48 q-133 0 -231 50t-158 133t-88 179t-29 195zM232 612h600q-3 150 -80.5 241.5t-211.5 94.5q-136 0 -219 -88.5t-89 -247.5zM308 1436q0 34 26 59t62 25q24 0 32 -5l272 -115q68 -24 68 -80q0 -32 -23 -52t-65 -23q-6 2 -23 5t-24 5l-260 105q-57 22 -65 76z" />
<glyph unicode="&#xe9;" horiz-adv-x="1065" d="M47 545q2 5 3 6l1 4q6 140 64 265.5t165.5 203.5t251.5 80q141 0 250.5 -76t169.5 -202t60 -263q0 -88 -100 -88h-680q2 -108 46 -182.5t119 -111.5t166 -37q160 0 293 112q46 33 68 33q30 0 46.5 -22.5t16.5 -53.5q-1 -33 -27 -65q-60 -64 -170 -112t-237 -48 q-133 0 -231 50t-158 133t-88 179t-29 195zM232 612h600q-3 150 -80.5 241.5t-211.5 94.5q-136 0 -219 -88.5t-89 -247.5zM308 1324q8 58 79 88l242 99q14 8 47 8q32 0 58 -24q26 -23 26 -55q0 -50 -68 -76l-239 -101q-15 -6 -61 -10q-35 0 -58 20q-24 19 -26 51z" />
<glyph unicode="&#xea;" horiz-adv-x="1065" d="M47 545q2 5 3 6l1 4q6 140 64 265.5t165.5 203.5t251.5 80q141 0 250.5 -76t169.5 -202t60 -263q0 -88 -100 -88h-680q2 -108 46 -182.5t119 -111.5t166 -37q160 0 293 112q46 33 68 33q30 0 46.5 -22.5t16.5 -53.5q-1 -33 -27 -65q-60 -64 -170 -112t-237 -48 q-133 0 -231 50t-158 133t-88 179t-29 195zM208 1317q0 61 48 79l273 116l266 -116q26 -8 39.5 -31t13.5 -48q0 -30 -20 -51q-20 -20 -56 -23q-28 7 -48 13l-195 79l-193 -75q-18 -8 -59 -17q-32 0 -50.5 22t-18.5 52zM232 612h600q-3 150 -80.5 241.5t-211.5 94.5 q-136 0 -219 -88.5t-89 -247.5z" />
<glyph unicode="&#xeb;" horiz-adv-x="1065" d="M47 545q2 5 3 6l1 4q6 140 64 265.5t165.5 203.5t251.5 80q141 0 250.5 -76t169.5 -202t60 -263q0 -88 -100 -88h-680q2 -108 46 -182.5t119 -111.5t166 -37q160 0 293 112q46 33 68 33q30 0 46.5 -22.5t16.5 -53.5q-1 -33 -27 -65q-60 -64 -170 -112t-237 -48 q-133 0 -231 50t-158 133t-88 179t-29 195zM232 612h600q-3 150 -80.5 241.5t-211.5 94.5q-136 0 -219 -88.5t-89 -247.5zM232 1348q0 48 32 80t80 32q46 0 77.5 -32t31.5 -80q0 -46 -32 -78q-33 -31 -77 -31q-47 0 -79.5 32t-32.5 77zM613 1348q0 48 31.5 80t79.5 32 q47 0 79.5 -32t32.5 -80q0 -45 -33 -77t-79 -32q-47 0 -79 32t-32 77z" />
<glyph unicode="&#xec;" horiz-adv-x="415" d="M-24 1440q0 34 26 59t62 25q24 0 32 -5l272 -115q68 -24 68 -80q0 -32 -23 -52t-65 -23q-6 2 -23 5t-24 5l-260 105q-57 22 -65 76zM121 80v932q0 42 25.5 67t62.5 25q38 0 64 -25t26 -71v-928q0 -44 -26.5 -68t-63.5 -24q-36 0 -62 25t-26 67z" />
<glyph unicode="&#xed;" horiz-adv-x="415" d="M-24 1320q8 58 79 88l242 99q14 8 47 8q32 0 58 -24q26 -23 26 -55q0 -50 -68 -76l-239 -101q-15 -6 -61 -10q-35 0 -58 20q-24 19 -26 51zM121 80v932q0 42 25.5 67t62.5 25q38 0 64 -25t26 -71v-928q0 -44 -26.5 -68t-63.5 -24q-36 0 -62 25t-26 67z" />
<glyph unicode="&#xee;" horiz-adv-x="415" d="M-108 1313q0 61 48 79l273 116l266 -116q26 -8 39.5 -31t13.5 -48q0 -30 -20 -51q-20 -20 -56 -23q-28 7 -48 13l-195 79l-193 -75q-18 -8 -59 -17q-32 0 -50.5 22t-18.5 52zM121 80v932q0 42 25.5 67t62.5 25q38 0 64 -25t26 -71v-928q0 -44 -26.5 -68t-63.5 -24 q-36 0 -62 25t-26 67z" />
<glyph unicode="&#xef;" horiz-adv-x="415" d="M-88 1348q0 48 32 80t80 32q46 0 77.5 -32t31.5 -80q0 -46 -32 -78q-33 -31 -77 -31q-47 0 -79.5 32t-32.5 77zM121 80v932q0 42 25.5 67t62.5 25q38 0 64 -25t26 -71v-928q0 -44 -26.5 -68t-63.5 -24q-36 0 -62 25t-26 67zM293 1348q0 48 31.5 80t79.5 32q47 0 79.5 -32 t32.5 -80q0 -45 -33 -77t-79 -32q-47 0 -79 32t-32 77z" />
<glyph unicode="&#xf0;" d="M72 536q0 106 31 205.5t92 179t149 125.5q86 46 196 46q74 0 144 -33t112 -91l5 5q-65 171 -248 327l-176 -84q-29 -15 -65 -20q-17 4 -24.5 10t-13 18t-10.5 23q8 41 35 53l162 76q-32 25 -90.5 50.5t-80.5 41.5t-22 52q0 28 20.5 45.5t55.5 17.5q46 0 128 -38t148 -89 l189 96q29 16 55 17q22 0 37 -13.5t15 -35.5q0 -42 -44 -60l-160 -76q110 -96 181 -219t105 -263t34 -290q0 -186 -53.5 -326.5t-164 -219t-274.5 -78.5q-143 0 -250 78t-162.5 204t-55.5 266zM252 536q0 -98 33 -188t101 -147t167 -57q98 0 165.5 57t100.5 147t33 188 t-33 189t-101 149t-165 58q-98 0 -166.5 -58t-101.5 -149t-33 -189z" />
<glyph unicode="&#xf1;" d="M121 80v928q0 45 25.5 70.5t62.5 25.5q38 0 64 -25t26 -71v-44l4 -4q52 69 130.5 106.5t166.5 37.5q102 0 189.5 -46t140.5 -140t53 -230v-608q0 -42 -26 -65t-64 -23q-36 0 -62 23.5t-26 64.5v604q0 122 -74.5 191t-177.5 69q-66 0 -124.5 -30t-94 -90t-35.5 -144v-600 q0 -46 -24.5 -71t-61.5 -25q-38 0 -65 26.5t-27 69.5zM252 1340q0 44 20 69q54 59 160 59q44 0 120 -19t104 -21q20 2 64 21t68 19q28 0 48 -24t20 -52q0 -64 -62 -96t-134 -36q-8 4 -19 4q-28 0 -94.5 18t-102.5 18q-27 0 -73 -19q-45 -19 -55 -21q-33 16 -48.5 32 t-15.5 48z" />
<glyph unicode="&#xf2;" d="M72 545q0 160 61.5 287.5t171.5 199.5t248 72q144 -2 253.5 -79t167.5 -204t58 -276q0 -151 -58 -279t-167 -203t-254 -75q-146 0 -255.5 76t-167.5 204t-58 277zM252 545q0 -154 72 -277.5t225 -123.5q100 0 168 54t100.5 145t34.5 202q0 110 -34 201.5t-101.5 146.5 t-163.5 55q-95 0 -163 -52t-103 -144.5t-35 -206.5zM328 1432q0 34 26 59t62 25q24 0 32 -5l272 -115q68 -24 68 -80q0 -32 -23 -52t-65 -23q-6 2 -23 5t-24 5l-260 105q-57 22 -65 76z" />
<glyph unicode="&#xf3;" d="M72 545q0 160 61.5 287.5t171.5 199.5t248 72q144 -2 253.5 -79t167.5 -204t58 -276q0 -151 -58 -279t-167 -203t-254 -75q-146 0 -255.5 76t-167.5 204t-58 277zM252 545q0 -154 72 -277.5t225 -123.5q100 0 168 54t100.5 145t34.5 202q0 110 -34 201.5t-101.5 146.5 t-163.5 55q-95 0 -163 -52t-103 -144.5t-35 -206.5zM328 1324q8 58 79 88l242 99q14 8 47 8q32 0 58 -24q26 -23 26 -55q0 -50 -68 -76l-239 -101q-15 -6 -61 -10q-35 0 -58 20q-24 19 -26 51z" />
<glyph unicode="&#xf4;" d="M72 545q0 160 61.5 287.5t171.5 199.5t248 72q144 -2 253.5 -79t167.5 -204t58 -276q0 -151 -58 -279t-167 -203t-254 -75q-146 0 -255.5 76t-167.5 204t-58 277zM232 1317q0 61 48 79l273 116l266 -116q26 -8 39.5 -31t13.5 -48q0 -30 -20 -51q-20 -20 -56 -23 q-28 7 -48 13l-195 79l-193 -75q-18 -8 -59 -17q-32 0 -50.5 22t-18.5 52zM252 545q0 -154 72 -277.5t225 -123.5q100 0 168 54t100.5 145t34.5 202q0 110 -34 201.5t-101.5 146.5t-163.5 55q-95 0 -163 -52t-103 -144.5t-35 -206.5z" />
<glyph unicode="&#xf5;" d="M72 545q0 160 61.5 287.5t171.5 199.5t248 72q144 -2 253.5 -79t167.5 -204t58 -276q0 -151 -58 -279t-167 -203t-254 -75q-146 0 -255.5 76t-167.5 204t-58 277zM244 1344q0 44 20 69q54 59 160 59q44 0 120 -19t104 -21q20 2 64 21t68 19q28 0 48 -24t20 -52 q0 -64 -62 -96t-134 -36q-8 4 -19 4q-28 0 -94.5 18t-102.5 18q-27 0 -73 -19q-45 -19 -55 -21q-33 16 -48.5 32t-15.5 48zM252 545q0 -154 72 -277.5t225 -123.5q100 0 168 54t100.5 145t34.5 202q0 110 -34 201.5t-101.5 146.5t-163.5 55q-95 0 -163 -52t-103 -144.5 t-35 -206.5z" />
<glyph unicode="&#xf6;" d="M72 545q0 160 61.5 287.5t171.5 199.5t248 72q144 -2 253.5 -79t167.5 -204t58 -276q0 -151 -58 -279t-167 -203t-254 -75q-146 0 -255.5 76t-167.5 204t-58 277zM252 545q0 -154 72 -277.5t225 -123.5q100 0 168 54t100.5 145t34.5 202q0 110 -34 201.5t-101.5 146.5 t-163.5 55q-95 0 -163 -52t-103 -144.5t-35 -206.5zM252 1352q0 48 32 80t80 32q46 0 77.5 -32t31.5 -80q0 -46 -32 -78q-33 -31 -77 -31q-47 0 -79.5 32t-32.5 77zM633 1352q0 48 31.5 80t79.5 32q47 0 79.5 -32t32.5 -80q0 -45 -33 -77t-79 -32q-47 0 -79 32t-32 77z" />
<glyph unicode="&#xf8;" d="M41 8q5 28 31 60l104 124q-104 134 -104 344q0 154 56.5 284t166.5 207t260 77q92 0 169 -32t120 -76l88 108q30 36 59 36q23 0 44.5 -18t21.5 -42q-1 -20 -21 -48l-108 -133q104 -149 104 -359q-2 -109 -35 -209t-95 -177.5t-150 -121.5t-199 -44q-169 0 -293 104 l-92 -108q-20 -30 -60 -31q-22 0 -42 17t-25 38zM248 532q8 -126 45 -200l447 540q-76 76 -187 76q-85 0 -150.5 -43t-105 -130t-45.5 -216q0 -15 -4 -27zM364 219q76 -75 191 -75q130 0 210.5 105t86.5 291q0 120 -43 216z" />
<glyph unicode="&#xf9;" d="M121 412v600q0 42 25.5 67t62.5 25q38 0 64 -24t26 -68v-596q0 -124 62.5 -198t187.5 -74q256 0 256 272v596q0 42 25.5 67t62.5 25q38 0 64 -24t26 -68v-600q0 -112 -45 -209t-143.5 -156t-249.5 -59q-142 0 -237.5 57.5t-141 154t-45.5 212.5zM324 1432q0 34 26 59 t62 25q24 0 32 -5l272 -115q68 -24 68 -80q0 -32 -23 -52t-65 -23q-6 2 -23 5t-24 5l-260 105q-57 22 -65 76z" />
<glyph unicode="&#xfa;" d="M121 412v600q0 42 25.5 67t62.5 25q38 0 64 -24t26 -68v-596q0 -124 62.5 -198t187.5 -74q256 0 256 272v596q0 42 25.5 67t62.5 25q38 0 64 -24t26 -68v-600q0 -112 -45 -209t-143.5 -156t-249.5 -59q-142 0 -237.5 57.5t-141 154t-45.5 212.5zM312 1316q8 58 79 88 l242 99q14 8 47 8q32 0 58 -24q26 -23 26 -55q0 -50 -68 -76l-239 -101q-15 -6 -61 -10q-35 0 -58 20q-24 19 -26 51z" />
<glyph unicode="&#xfb;" d="M121 412v600q0 42 25.5 67t62.5 25q38 0 64 -24t26 -68v-596q0 -124 62.5 -198t187.5 -74q256 0 256 272v596q0 42 25.5 67t62.5 25q38 0 64 -24t26 -68v-600q0 -112 -45 -209t-143.5 -156t-249.5 -59q-142 0 -237.5 57.5t-141 154t-45.5 212.5zM236 1313q0 61 48 79 l273 116l266 -116q26 -8 39.5 -31t13.5 -48q0 -30 -20 -51q-20 -20 -56 -23q-28 7 -48 13l-195 79l-193 -75q-18 -8 -59 -17q-32 0 -50.5 22t-18.5 52z" />
<glyph unicode="&#xfc;" d="M121 412v600q0 42 25.5 67t62.5 25q38 0 64 -24t26 -68v-596q0 -124 62.5 -198t187.5 -74q256 0 256 272v596q0 42 25.5 67t62.5 25q38 0 64 -24t26 -68v-600q0 -112 -45 -209t-143.5 -156t-249.5 -59q-142 0 -237.5 57.5t-141 154t-45.5 212.5zM256 1344q0 48 32 80 t80 32q46 0 77.5 -32t31.5 -80q0 -46 -32 -78q-33 -31 -77 -31q-47 0 -79.5 32t-32.5 77zM637 1344q0 48 31.5 80t79.5 32q47 0 79.5 -32t32.5 -80q0 -45 -33 -77t-79 -32q-47 0 -79 32t-32 77z" />
<glyph unicode="&#xfd;" horiz-adv-x="872" d="M33 1020q0 37 23.5 58.5t59.5 21.5q31 0 57.5 -18t35.5 -46l247 -747h5l247 751q18 64 84 64q36 0 60 -23t24 -65q0 -15 -8 -43l-472 -1345q-10 -37 -38 -58.5t-61 -21.5q-30 0 -50.5 22t-23.5 62q5 16 13 56l132 353l-325 932q-2 14 -10 47zM228 1320q8 58 79 88l242 99 q14 8 47 8q32 0 58 -24q26 -23 26 -55q0 -50 -68 -76l-239 -101q-15 -6 -61 -10q-35 0 -58 20q-24 19 -26 51z" />
<glyph unicode="&#xfe;" horiz-adv-x="1140" d="M129 -352v1841q0 44 25 67t61 23q40 0 66 -21.5t26 -64.5v-537h5q74 142 272 148q108 0 197 -40t152.5 -114t98 -175t35.5 -222q0 -157 -57.5 -286t-163.5 -204t-242 -75q-182 0 -292 147h-5v-483q0 -52 -24.5 -80t-63.5 -28q-34 0 -62 29t-28 75zM289 549 q0 -185 82 -296q83 -111 213 -113q8 4 16 4q92 6 156 58.5t97.5 141t35.5 201.5q0 103 -30.5 194t-94.5 148t-160 61q-113 0 -182.5 -58t-99.5 -148.5t-33 -192.5z" />
<glyph unicode="&#xff;" horiz-adv-x="872" d="M33 1020q0 37 23.5 58.5t59.5 21.5q31 0 57.5 -18t35.5 -46l247 -747h5l247 751q18 64 84 64q36 0 60 -23t24 -65q0 -15 -8 -43l-472 -1345q-10 -37 -38 -58.5t-61 -21.5q-30 0 -50.5 22t-23.5 62q5 16 13 56l132 353l-325 932q-2 14 -10 47zM148 1348q0 48 32 80t80 32 q46 0 77.5 -32t31.5 -80q0 -46 -32 -78q-33 -31 -77 -31q-47 0 -79.5 32t-32.5 77zM529 1348q0 48 31.5 80t79.5 32q47 0 79.5 -32t32.5 -80q0 -45 -33 -77t-79 -32q-47 0 -79 32t-32 77z" />
<glyph unicode="&#x152;" horiz-adv-x="1896" d="M64 727q0 144 43 278.5t125 240t202 166t270 60.5q242 0 432 -204v92q0 100 97 100h508q37 0 58 -24q21 -26 21 -60q0 -36 -23 -60t-69 -24h-411v-481h403q37 0 58.5 -24.5t21.5 -59.5t-23 -59.5t-65 -24.5h-395v-475h438q40 0 60 -24.5t20 -63.5q0 -32 -22.5 -56 t-63.5 -24h-516q-97 0 -97 100v113h-4q-46 -64 -113 -116t-148 -80.5t-167 -28.5q-150 0 -270 60t-202.5 165t-125 238.5t-42.5 275.5zM256 727q0 -164 51 -297.5t152.5 -209.5t248.5 -76q146 2 245.5 80t147.5 211t48 300q0 166 -50.5 298.5t-150.5 208t-244 75.5 q-142 0 -243 -78t-153 -212t-52 -300z" />
<glyph unicode="&#x153;" horiz-adv-x="1859" d="M72 540q0 181 69 309.5t180 191.5t234 63q144 -2 238 -70.5t147 -144.5q52 89 154 152t242 63q102 -3 188.5 -47.5t149 -119t96.5 -168t34 -193.5t-100 -101h-676q0 -88 35 -159.5t97 -113.5t140 -50q43 0 64 -4q85 3 155.5 31.5t145.5 88.5q25 20 51 21q28 0 46 -23.5 t18 -52.5q0 -16 -8 -41q-31 -50 -96.5 -91t-150.5 -66t-169 -27q-132 0 -244 54t-172 158q-38 -52 -92 -99t-138 -80t-198 -33q-110 6 -211.5 73.5t-164.5 191.5q-64 123 -64 287zM252 549q0 -116 34.5 -208t102 -144.5t160.5 -52.5q102 0 169.5 56.5t98.5 148t31 191.5 q-2 124 -37.5 216t-103 142t-162.5 50q-112 -4 -178 -71.5t-90.5 -156.5t-24.5 -171zM1028 612h596q-2 108 -41.5 183t-106 113t-149.5 40q-124 0 -211 -90q-88 -90 -88 -246z" />
<glyph unicode="&#x2c6;" horiz-adv-x="415" d="M-112 1313q0 61 48 79l273 116l266 -116q26 -8 39.5 -31t13.5 -48q0 -30 -20 -51q-20 -20 -56 -23q-28 7 -48 13l-195 79l-193 -75q-18 -8 -59 -17q-32 0 -50.5 22t-18.5 52z" />
<glyph unicode="&#x2dc;" horiz-adv-x="415" d="M-92 1340q0 44 20 69q54 59 160 59q44 0 120 -19t104 -21q20 2 64 21t68 19q28 0 48 -24t20 -52q0 -64 -62 -96t-134 -36q-8 4 -19 4q-28 0 -94.5 18t-102.5 18q-27 0 -73 -19q-45 -19 -55 -21q-33 16 -48.5 32t-15.5 48z" />
<glyph unicode="&#x2000;" horiz-adv-x="947" />
<glyph unicode="&#x2001;" horiz-adv-x="1895" />
<glyph unicode="&#x2002;" horiz-adv-x="947" />
<glyph unicode="&#x2003;" horiz-adv-x="1895" />
<glyph unicode="&#x2004;" horiz-adv-x="631" />
<glyph unicode="&#x2005;" horiz-adv-x="473" />
<glyph unicode="&#x2006;" horiz-adv-x="315" />
<glyph unicode="&#x2007;" horiz-adv-x="315" />
<glyph unicode="&#x2008;" horiz-adv-x="236" />
<glyph unicode="&#x2009;" horiz-adv-x="379" />
<glyph unicode="&#x200a;" horiz-adv-x="105" />
<glyph unicode="&#x2010;" horiz-adv-x="721" d="M68 545q3 34 25.5 58.5t58.5 24.5h411q42 0 63 -22t21 -57q0 -34 -21.5 -56t-62.5 -22h-407q-38 0 -62 22t-26 52z" />
<glyph unicode="&#x2011;" horiz-adv-x="721" d="M68 545q3 34 25.5 58.5t58.5 24.5h411q42 0 63 -22t21 -57q0 -34 -21.5 -56t-62.5 -22h-407q-38 0 -62 22t-26 52z" />
<glyph unicode="&#x2012;" horiz-adv-x="721" d="M68 545q3 34 25.5 58.5t58.5 24.5h411q42 0 63 -22t21 -57q0 -34 -21.5 -56t-62.5 -22h-407q-38 0 -62 22t-26 52z" />
<glyph unicode="&#x2013;" horiz-adv-x="1024" d="M0 549q0 34 23 56.5t65 22.5h852q40 0 62 -22t22 -57q0 -32 -22 -55t-62 -23h-856q-38 0 -61 22.5t-23 55.5z" />
<glyph unicode="&#x2014;" horiz-adv-x="2048" d="M-76 549q0 34 20 56.5t56 22.5h2044h8q34 0 55 -22.5t21 -56.5q0 -32 -21 -55t-55 -23h-2044h-8q-36 0 -56 22.5t-20 55.5z" />
<glyph unicode="&#x2018;" horiz-adv-x="381" d="M51 1096q9 44 17 63l132 256q26 57 84 57q34 0 57 -21t23 -59q0 -30 -12 -61l-133 -256q-26 -55 -90 -63q-31 0 -53 22q-21 24 -25 62z" />
<glyph unicode="&#x2019;" horiz-adv-x="381" d="M47 1096q5 22 21 59l124 250q30 63 88 63q36 0 62 -19t26 -57q0 -33 -16 -65l-129 -247q-27 -64 -83 -72q-79 14 -93 88z" />
<glyph unicode="&#x201c;" horiz-adv-x="643" d="M41 1096q5 36 15 59l124 254q30 63 92 63q34 0 57 -23t23 -61q0 -28 -12 -52l-127 -256q-31 -56 -97 -64q-31 0 -52 22q-22 24 -23 58zM332 1096q8 41 16 59l123 254q30 63 88 63q38 0 61 -22q23 -24 23 -62q0 -32 -10 -52l-133 -256q-30 -57 -92 -64q-30 0 -51.5 22 t-24.5 58z" />
<glyph unicode="&#x201d;" horiz-adv-x="643" d="M41 1096q5 36 15 59l124 254q30 63 92 63q34 0 57 -23t23 -61q0 -28 -12 -52l-127 -256q-31 -56 -97 -64q-31 0 -52 22q-22 24 -23 58zM332 1096q8 41 16 59l123 254q30 63 88 63q38 0 61 -22q23 -24 23 -62q0 -32 -10 -52l-133 -256q-30 -57 -92 -64q-30 0 -51.5 22 t-24.5 58z" />
<glyph unicode="&#x201e;" horiz-adv-x="643" d="M41 -176q5 32 15 55l124 252q30 65 92 65q34 0 57 -22q23 -24 23 -62q0 -26 -12 -52l-127 -256q-33 -60 -97 -60q-32 0 -53 22t-22 58zM332 -176q10 41 16 55l123 252q30 65 88 65q38 0 61 -22t23 -62q0 -32 -10 -52l-133 -256q-32 -60 -92 -60q-30 0 -51.5 21.5 t-24.5 58.5z" />
<glyph unicode="&#x2022;" horiz-adv-x="1024" d="M148 727q0 100 49 185.5t133 134.5t182 49t182 -49t133 -134t49 -186q0 -98 -49 -181.5t-133 -132.5t-182 -49t-182 49t-133 132.5t-49 181.5z" />
<glyph unicode="&#x2026;" horiz-adv-x="2048" d="M236 92q0 42 31.5 73t76.5 31q42 0 73 -31t31 -73t-31 -73t-73 -31q-44 0 -76 31.5t-32 72.5zM920 92q0 42 31 73t73 31q44 0 74 -30.5t30 -73.5q0 -42 -30 -73t-74 -31q-42 0 -73 32t-31 72zM1604 92q0 42 31 73t73 31t73 -31t31 -73t-31 -73t-73 -31t-73 32t-31 72z " />
<glyph unicode="&#x202f;" horiz-adv-x="379" />
<glyph unicode="&#x2039;" horiz-adv-x="491" d="M88 549l205 367q23 52 71 52q27 0 51.5 -22t24.5 -49q0 -23 -20 -65l-172 -283l176 -293q16 -28 16 -60q0 -54 -80 -67q-44 4 -63 51z" />
<glyph unicode="&#x203a;" horiz-adv-x="491" d="M84 893q3 32 25.5 51.5t54.5 19.5q50 0 72 -44l208 -371l-204 -365q-26 -52 -72 -55q-70 9 -80 67q4 22 24 72l168 281l-176 291q-20 51 -20 53z" />
<glyph unicode="&#x205f;" horiz-adv-x="473" />
<glyph unicode="&#x2122;" horiz-adv-x="2027" d="M116 1388q8 72 60 72h572q30 0 46 -20q15 -20 15 -48q0 -29 -15.5 -49t-41.5 -20h-203v-635q0 -36 -24.5 -56t-59.5 -24q-36 4 -60 24t-24 56v635h-205q-50 -1 -60 65zM973 692v644q1 136 123 136q112 0 143 -88l205 -528l200 532q29 84 144 84q125 -8 125 -132v-648 q0 -76 -78 -84q-32 4 -56 25.5t-24 54.5v592h-4l-227 -608q-18 -56 -84 -64q-62 8 -80 64l-228 608h-4v-588q0 -37 -22 -58q-24 -22 -58 -26q-33 3 -54 25t-21 59z" />
<glyph unicode="&#x25fc;" horiz-adv-x="1105" d="M0 0v1105h1105v-1105h-1105z" />
</font>
</defs>
</svg>
