<?xml version="1.0" standalone="no"?>
<!DOCTYPE svg PUBLIC "-//W3C//DTD SVG 1.1//EN" "http://www.w3.org/Graphics/SVG/1.1/DTD/svg11.dtd" >
<svg xmlns="http://www.w3.org/2000/svg">
<metadata></metadata>
<defs>
<font id="vagroundedblackssibold" horiz-adv-x="1304" >
<font-face units-per-em="2048" ascent="1638" descent="-410" />
<missing-glyph horiz-adv-x="540" />
<glyph horiz-adv-x="0" />
<glyph unicode="&#xd;" horiz-adv-x="540" />
<glyph unicode=" "  horiz-adv-x="540" />
<glyph unicode="&#x09;" horiz-adv-x="540" />
<glyph unicode="&#xa0;" horiz-adv-x="540" />
<glyph unicode="!" horiz-adv-x="497" d="M70 147q0 72 53 126.5t125 54.5t125 -54.5t53 -126.5q0 -74 -52 -127t-126 -53q-72 0 -125 53.5t-53 126.5zM88 598v725q0 76 43 129t117 53q76 0 118 -53t42 -129v-725q0 -76 -42 -129t-118 -53q-74 0 -117 53t-43 129z" />
<glyph unicode="&#x22;" horiz-adv-x="1024" d="M178 991v348q0 63 37 104.5t98 41.5t98.5 -41t37.5 -105v-348q0 -63 -37 -104t-99 -41q-61 0 -98 41t-37 104zM573 991v348q0 63 37 104.5t99 41.5q61 0 98 -41t37 -105v-348q0 -63 -37 -104t-98 -41t-98.5 41t-37.5 104z" />
<glyph unicode="#" horiz-adv-x="1185" d="M74 514q0 76 71 94q18 4 131 4l33 246q-92 0 -119 8q-57 18 -57 92q0 78 74 95q16 4 133 4q10 125 18 250q31 178 140 178q39 0 65.5 -23.5t26.5 -60.5q0 -68 -17 -172l-28 -172h184q10 125 19 250q31 178 139 178q39 0 65.5 -23.5t26.5 -60.5q0 -68 -16 -172 q-14 -86 -29 -172q94 0 119 -8q57 -19 57 -91q0 -78 -68 -96q-20 -4 -135 -4l-33 -246q94 0 119 -8q57 -18 58 -90q0 -80 -70 -96q-18 -4 -137 -4q-8 -125 -19 -250q-29 -176 -139 -176q-37 0 -64.5 23.5t-27.5 60.5q0 68 18 172q14 84 27 170h-184q-8 -125 -19 -250 q-29 -176 -139 -176q-37 0 -64.5 23.5t-27.5 60.5q0 68 18 172q14 84 27 170q-92 0 -119 8q-57 18 -57 92zM483 612h187l32 246h-186z" />
<glyph unicode="$" horiz-adv-x="1210" d="M82 207q0 66 42 119t105 53q31 0 136.5 -45t179.5 -45v321q-207 59 -309 135q-147 111 -148 285q0 195 130 326t327 149q0 8 -2 32t-2 38q0 88 65 88q63 0 64 -86q0 -12 -2 -37v-35q135 -4 231 -47q131 -57 131 -172q0 -61 -39 -108.5t-98 -47.5q-41 0 -112.5 39 t-112.5 39v-293q211 -59 319 -149q143 -118 143 -311q0 -197 -133 -336t-329 -152q0 -100 0 -98q-8 -55 -62 -55q-66 0 -65 84q0 12 2 35.5t2 33.5q-463 29 -463 240zM432 1071q0 -92 113 -119v256q-113 -25 -113 -137zM668 289q51 0 84.5 44t33.5 97q0 111 -118 148v-289z " />
<glyph unicode="%" horiz-adv-x="1476" d="M72 1174q0 135 92 233t227 98q133 0 226.5 -98t93.5 -233t-93.5 -234.5t-226.5 -99.5q-135 0 -227 98t-92 236zM252 82q0 82 340 668q193 324 385 647q61 109 127 108q49 0 85 -32.5t36 -81.5q0 -82 -342 -668q-190 -324 -383 -647q-61 -109 -127 -109q-49 0 -85 33 t-36 82zM305 1174q0 -41 23.5 -70t62.5 -29t62.5 29t23.5 70q0 39 -23.5 67.5t-62.5 28.5t-62.5 -29t-23.5 -67zM766 299q0 135 92 234.5t227 99.5q133 0 226.5 -99.5t93.5 -234.5q0 -133 -93 -232.5t-227 -99.5q-135 0 -227 98.5t-92 233.5zM999 299q0 -39 24 -67.5 t62 -28.5q39 0 62.5 28.5t23.5 67.5q0 41 -23.5 69.5t-62.5 28.5t-62.5 -28.5t-23.5 -69.5z" />
<glyph unicode="&#x26;" horiz-adv-x="1519" d="M80 406q0 276 330 442q-137 158 -138 285q0 166 127 266q117 90 289 90q184 0 299 -82q131 -94 131 -272q0 -225 -250 -363l207 -242q49 59 96 121q72 78 123 78q55 0 100.5 -44t45.5 -97q0 -55 -72 -139q-4 -6 -115 -119q41 -47 82 -92q51 -66 51 -105q0 -61 -48 -103 t-111 -42q-57 0 -109 51q-41 47 -82 96q-199 -168 -481 -168q-197 0 -336 122t-139 317zM399 418q0 -84 56.5 -137.5t140.5 -53.5q139 0 262 109l-274 307q-184 -109 -185 -225zM567 1141q0 -84 121 -187q160 74 160 172q0 66 -41 103t-107 37q-53 0 -93 -36t-40 -89z" />
<glyph unicode="'" horiz-adv-x="471" d="M100 991v348q0 63 37 104.5t99 41.5q61 0 98 -41t37 -105v-348q0 -63 -37 -104t-98 -41t-98.5 41t-37.5 104z" />
<glyph unicode="(" horiz-adv-x="473" d="M20 580q0 240 58 524q84 401 235 401q59 0 100.5 -34.5t41.5 -94.5q0 -43 -76 -331.5t-76 -464.5t76 -465t76 -332q0 -59 -41 -95t-101 -36q-152 0 -235 403q-57 283 -58 525z" />
<glyph unicode=")" horiz-adv-x="544" d="M55 -217q0 43 76 331.5t76 465.5q0 176 -76 464.5t-76 331.5q0 59 40 94t102 35q150 0 233 -401q59 -284 59 -524q0 -242 -59 -525q-84 -403 -233 -403q-61 0 -101.5 36t-40.5 95z" />
<glyph unicode="*" horiz-adv-x="886" d="M88 965q0 49 64 82q53 23 106 45q-53 23 -106 45q-63 35 -64 84q0 47 29.5 83.5t77.5 36.5q33 0 81 -30l74 -54q-2 16 -10 66q-8 41 -8 66q0 96 110 96q111 0 111 -96q0 -25 -8 -66q-8 -49 -10 -66q35 27 71 54q45 31 82 30q45 0 78 -36.5t33 -83.5q0 -49 -66 -84 q-53 -23 -106 -45q53 -23 106 -43q66 -35 66 -84q0 -47 -32 -85t-79 -38q-37 0 -82 30q-37 27 -71 54q2 -16 10 -60.5t8 -68.5q0 -98 -111 -99q-111 0 -110 99q0 25 8 68.5t10 60.5l-74 -54q-49 -31 -81 -30q-47 0 -77 36.5t-30 86.5z" />
<glyph unicode="+" horiz-adv-x="1280" d="M61 586q0 145 236 145q45 0 116.5 -5t92.5 -5q0 18 -6 91t-6 120q0 240 147 239q145 0 145 -239q0 -47 -5 -120t-5 -91q18 0 91 5t116 5q238 0 238 -145q0 -150 -236 -150q-45 0 -117.5 6.5t-91.5 6.5q0 -18 5 -91t5 -120q0 -238 -145 -238q-147 0 -147 238q0 47 6 119.5 t6 91.5q-18 0 -88 -5.5t-113 -5.5q-244 0 -244 148z" />
<glyph unicode="," horiz-adv-x="538" d="M18 -172q0 45 31 100l168 303q53 96 145 97q66 0 111 -39.5t45 -102.5q0 -45 -31 -100l-168 -303q-53 -96 -145 -96q-66 0 -111 38.5t-45 102.5z" />
<glyph unicode="-" horiz-adv-x="813" d="M31 578q0 61 36.5 98t98.5 37h483q61 0 98 -37t37 -98q0 -137 -135 -138h-483q-135 0 -135 138z" />
<glyph unicode="." horiz-adv-x="507" d="M76 147q0 72 53 126.5t125 54.5t125 -54.5t53 -126.5q0 -74 -52 -127t-126 -53t-126 53.5t-52 126.5z" />
<glyph unicode="/" horiz-adv-x="942" d="M18 78q0 78 304 653q164 303 325 604q43 82 62 107q47 63 98 63q115 1 115 -110q0 -78 -304 -654q-162 -303 -325 -604q-41 -82 -62 -106q-45 -63 -98 -64q-115 0 -115 111z" />
<glyph unicode="0" d="M43 737q0 311 145 525q166 244 465 243q297 0 465 -243q146 -214 146 -525q0 -313 -146 -526q-168 -244 -465 -244q-299 0 -465 244q-145 213 -145 526zM387 737q0 -166 51 -286q72 -162 215 -162t213 162q54 120 54 286t-54 285q-70 162 -213 162t-215 -162 q-51 -119 -51 -285z" />
<glyph unicode="1" d="M358 1317q0 68 43 112t111 44h270q166 0 166 -168v-1139q0 -80 -44 -129t-122 -49q-80 0 -123 49t-43 129v997q-129 0 -174 17q-84 31 -84 137z" />
<glyph unicode="2" d="M147 147q0 76 162 256q150 166 299 332q162 197 162 309q0 139 -127 140q-90 0 -133 -82q-29 -74 -59 -150q-39 -82 -125 -82q-68 0 -113 47.5t-45 114.5q0 201 146.5 337t349.5 136q195 0 328.5 -126t133.5 -320q0 -188 -170 -406q-150 -170 -299 -342q23 0 103 6.5 t129 6.5q270 0 270 -168q0 -68 -43 -112t-110 -44h-670q-76 0 -129 35q-59 41 -60 112z" />
<glyph unicode="3" d="M139 369q0 59 47 106t107 47q70 0 121 -61q45 -55 88 -111q59 -61 155 -61q70 0 118 52t48 124q0 111 -90 139q-84 18 -168 35q-90 33 -90 145q0 88 78 123q72 25 143 47q78 35 78 119q0 53 -36 82t-89 29q-84 0 -170 -88t-157 -88q-59 0 -97.5 47t-38.5 106 q0 150 160 254q139 90 299 90q186 0 313 -106q135 -113 136 -297q0 -176 -164 -299q115 -45 176 -146.5t61 -228.5q0 -205 -157 -336q-147 -125 -355 -125q-186 0 -342 105q-174 119 -174 297z" />
<glyph unicode="4" d="M18 442q0 66 64 164l487 762q74 117 236 117q111 0 178.5 -69.5t67.5 -182.5v-625q119 0 161 -18q76 -31 76 -131t-78 -131q-43 -16 -159 -17q0 -170 -11 -209q-31 -115 -149 -114q-121 0 -150 112q-10 39 -10 211q-16 0 -144 -10t-214 -10q-354 0 -355 151zM424 608h307 v527h-4z" />
<glyph unicode="5" d="M145 242q0 66 38 117t104 51q53 0 151.5 -60.5t171.5 -60.5q96 0 150 76q45 66 45 167q0 78 -44 137.5t-120 59.5q-63 0 -133 -38t-117 -38q-133 0 -133 123q0 115 21 279l40 278q10 80 51.5 110t125.5 30h499q68 0 111 -44.5t43 -111.5q0 -168 -287 -168q-57 0 -148 7 t-114 7l-22 -182q76 20 153 20q203 0 322 -147q108 -135 108 -344q0 -227 -156.5 -385t-383.5 -158q-145 0 -293 66q-182 82 -183 209z" />
<glyph unicode="6" d="M123 469q0 139 115.5 393t265.5 436q166 207 287 207q63 0 111 -48t48 -111q0 -55 -133 -211q-176 -207 -176 -209l4 -4q45 18 129 18q174 0 295 -145q115 -138 115 -318q0 -223 -152.5 -366.5t-378.5 -143.5q-233 0 -379 133q-152 139 -151 369zM467 477 q0 -76 55.5 -132t130.5 -56q76 0 131.5 56t55.5 132t-55.5 132.5t-131.5 56.5q-78 0 -132 -56.5t-54 -132.5z" />
<glyph unicode="7" d="M154 1317q0 68 43 112t110 44h672q70 0 121 -46t51 -114q0 -96 -229 -584q-141 -291 -283 -582q-37 -82 -68 -112q-45 -47 -118 -47q-63 0 -113.5 44t-50.5 107q0 82 213 525q125 250 248 499q-23 0 -127.5 -9t-169.5 -9q-299 0 -299 172z" />
<glyph unicode="8" d="M119 446q0 231 196 355q-135 109 -135 291q0 197 142 309q131 104 331 104q201 0 332 -104q141 -113 141 -309q0 -182 -135 -291q197 -124 197 -355q0 -217 -162 -352q-152 -127 -373 -127q-223 0 -374 127q-160 135 -160 352zM463 481q0 -80 55 -136t135 -56 q78 0 134.5 56t56.5 136t-55.5 136.5t-135.5 56.5t-135 -56.5t-55 -136.5zM512 1065q0 -57 42 -100t99 -43q55 0 98.5 43t43.5 100t-42 100t-100 43q-57 0 -99 -43t-42 -100z" />
<glyph unicode="9" d="M123 995q0 223 152.5 366.5t377.5 143.5q231 0 379 -133q152 -139 152 -368q0 -137 -117 -390.5t-264 -437.5q-168 -209 -287 -209q-63 0 -111.5 49.5t-48.5 112.5q0 55 131 209q88 104 179 209l-4 4q-49 -16 -130 -16q-176 0 -296 145q-113 135 -113 315zM467 995 q0 -76 54 -132t132 -56q76 0 131.5 56t55.5 132t-55.5 132.5t-131.5 56.5t-131 -56.5t-55 -132.5z" />
<glyph unicode=":" horiz-adv-x="528" d="M86 147q0 72 53.5 126.5t124.5 54.5q72 0 125 -54.5t53 -126.5q0 -74 -52 -127t-126 -53t-126 53.5t-52 126.5zM86 793q0 72 53.5 126t124.5 54q72 0 125 -54t53 -126q0 -74 -52 -127.5t-126 -53.5t-126 53.5t-52 127.5z" />
<glyph unicode=";" horiz-adv-x="579" d="M41 -172q0 45 31 100l168 303q53 96 145 97q63 0 109.5 -39.5t46.5 -102.5q0 -45 -31 -100l-168 -303q-53 -96 -145 -96q-66 0 -111 38.5t-45 102.5zM184 793q0 72 53.5 126t124.5 54q72 0 125.5 -54t53.5 -126q0 -74 -53.5 -127.5t-125.5 -53.5q-74 0 -126 53.5 t-52 127.5z" />
<glyph unicode="&#x3c;" horiz-adv-x="1296" d="M82 586q0 82 76 116q236 119 473 236q375 180 473 180q51 0 82 -34.5t31 -88.5q0 -90 -97 -131l-659 -278l659 -281q97 -41 97 -129q0 -125 -113 -125q-98 0 -473 180q-238 117 -473 236q-76 35 -76 119z" />
<glyph unicode="=" horiz-adv-x="1310" d="M76 342q0 63 40 99t103 36h873q63 0 103 -36t40 -99q0 -137 -143 -137h-873q-143 0 -143 137zM76 829q0 63 40 100.5t103 37.5h873q63 0 103 -37.5t40 -100.5t-40 -100t-103 -37h-873q-63 0 -103 37t-40 100z" />
<glyph unicode="&#x3e;" horiz-adv-x="1124" d="M-6 176q0 88 96 129l660 281l-660 278q-96 41 -96 131q0 53 30.5 88t81.5 35q98 0 474 -180q236 -117 473 -236q75 -34 75 -116q0 -84 -75 -119q-238 -119 -473 -236q-375 -180 -474 -180q-113 0 -112 125z" />
<glyph unicode="?" horiz-adv-x="1019" d="M23 1141q0 162 157 270q139 94 309 94q213 0 359.5 -124.5t146.5 -333.5q0 -358 -354 -429q0 -203 -160 -202q-70 0 -114.5 45t-44.5 117v165q0 88 84 117q76 20 151 41q82 35 82 135q0 57 -45 96t-105 39q-90 0 -165.5 -93t-153.5 -93q-61 0 -104 47t-43 109zM303 147 q0 72 53.5 126.5t124.5 54.5q72 0 125 -54.5t53 -126.5q0 -74 -52 -127t-126 -53q-72 0 -125 53.5t-53 126.5z" />
<glyph unicode="@" horiz-adv-x="1605" d="M55 735q0 326 228.5 548t554.5 222q295 0 497 -166q215 -178 215 -467q0 -221 -141 -399q-152 -188 -371 -188q-119 0 -120 104h-5q-92 -104 -254 -104q-121 0 -198 121q-70 104 -70 231q0 188 105 334q115 162 295 162q164 0 249 -127q14 111 105 110q90 0 90 -88 q0 -80 -42 -243.5t-42 -243.5q0 -14 13.5 -27.5t25.5 -13.5q90 0 139 121q37 90 37 194q0 240 -149 375q-143 129 -386 129q-236 0 -395.5 -173t-159.5 -411q0 -258 159 -419.5t415 -161.5q127 0 283.5 64.5t150.5 64.5q31 0 54.5 -22.5t23.5 -53.5q0 -96 -217 -174 q-180 -66 -295 -66q-332 0 -563.5 218t-231.5 550zM625 688q0 -166 137 -166q96 0 157.5 59.5t61.5 155.5q0 74 -41 117t-115 43q-84 0 -142 -62.5t-58 -146.5z" />
<glyph unicode="A" horiz-adv-x="1306" d="M6 125q0 150 154 547q106 264 215 530q55 150 92 203q70 100 184 100q117 0 187 -100q39 -53 94 -203q106 -266 215 -530q153 -397 153 -547q0 -66 -46 -101.5t-113 -35.5q-102 0 -154 102q-6 14 -61 193h-545q-55 -178 -62 -193q-53 -102 -153 -102q-68 0 -111 35 q-49 37 -49 102zM479 594h348l-165 539h-5z" />
<glyph unicode="B" horiz-adv-x="1200" d="M57 168v1137q0 72 46.5 120t119.5 48h391q180 0 295 -103.5t115 -282.5q0 -178 -174 -280q133 -27 213 -126.5t80 -236.5q0 -215 -150 -333q-137 -111 -358 -111h-412q-74 0 -120 48t-46 120zM389 297h209q201 0 201 152q0 78 -66 118q-53 33 -135 33h-209v-303zM389 897 h152q151 0 151 139t-151 140h-152v-279z" />
<glyph unicode="C" horiz-adv-x="1191" d="M8 737q0 332 197.5 550t525.5 218q160 0 275 -43q165 -59 165 -188q0 -63 -40.5 -112.5t-102.5 -49.5q-45 0 -139 36t-150 36q-184 0 -284 -135q-90 -121 -90 -312q0 -176 81 -297q96 -139 265 -139q61 0 167.5 35t157.5 35q70 0 109 -43t39 -113q0 -131 -174 -199 q-127 -49 -285 -49q-328 0 -526 223q-190 215 -191 547z" />
<glyph unicode="D" horiz-adv-x="1345" d="M51 168v1137q0 72 47 120t119 48h397q303 0 496 -213q184 -205 184 -512q0 -317 -178 -527q-190 -221 -502 -221h-397q-72 0 -119 48t-47 120zM383 311h176q190 0 289 127q90 115 90 310q0 184 -88 294q-96 121 -277 121h-190v-852z" />
<glyph unicode="E" horiz-adv-x="931" d="M41 168v1137q0 72 46 120t120 48h508q74 0 120 -41t46 -115q0 -166 -271 -166q-51 0 -134 6t-103 6v-268q20 0 96 5t123 5q260 0 260 -164q0 -166 -260 -166q-45 0 -121 5.5t-98 5.5v-275q20 0 106 7.5t139 7.5q275 0 275 -170q0 -74 -46 -115t-120 -41h-520 q-74 0 -120 48t-46 120z" />
<glyph unicode="F" horiz-adv-x="940" d="M80 166v1139q0 72 47 120t119 48h508q74 0 120 -41t46 -115q0 -166 -271 -166q-49 0 -132 6t-105 6v-264q20 0 93 5t116 5q256 0 256 -164q0 -165 -251 -165h-3q-43 0 -116 5t-95 5q0 -23 8 -125.5t8 -165.5q0 -311 -182 -311q-78 0 -122 49t-44 129z" />
<glyph unicode="G" horiz-adv-x="1468" d="M43 737q0 322 197 541q203 227 520 227q190 0 354 -67q211 -90 211 -254q0 -66 -42 -104t-107 -38q-45 0 -164 77t-238 77q-176 0 -280 -145q-94 -129 -95 -314q0 -188 90 -315q100 -145 279 -146q129 0 215 79t96 208q-16 0 -60 -2t-69 -2q-227 0 -227 158 q0 155 164 155h2h358h2q174 0 174 -204q0 -301 -178 -498q-186 -203 -485 -203q-328 0 -527 223q-190 215 -190 547z" />
<glyph unicode="H" horiz-adv-x="1433" d="M76 166v1141q0 80 44 129t122 49q182 0 182 -301q0 -59 -8 -155.5t-8 -119.5h618q0 23 -7 119t-7 156q0 301 180 301q80 0 123 -49.5t43 -128.5v-1141q0 -80 -43 -129t-123 -49q-182 0 -182 315q0 66 8 170.5t8 126.5h-618q0 -23 9 -127t9 -170q0 -315 -184 -315 q-78 0 -122 49t-44 129z" />
<glyph unicode="I" horiz-adv-x="483" d="M76 166v1141q0 80 44 129t122 49q80 0 123 -49.5t43 -128.5v-1141q0 -80 -43 -129t-123 -49q-78 0 -122 49t-44 129z" />
<glyph unicode="J" horiz-adv-x="948" d="M55 209q0 70 41 115t111 45q39 0 103.5 -40t103.5 -40q78 0 104 80q14 45 14 143v795q0 80 44.5 129t121.5 49q78 0 122 -49.5t44 -128.5v-852q0 -487 -440 -488q-135 0 -240 53q-129 66 -129 189z" />
<glyph unicode="K" horiz-adv-x="1339" d="M96 166v1141q0 80 44 129t122 49q182 0 182 -305q0 -61 -8 -160.5t-8 -122.5q139 166 277 332q229 256 335 256q63 0 114.5 -50.5t51.5 -111.5q0 -84 -202 -289q-129 -123 -259 -246q141 -145 283 -290q242 -264 242 -344q0 -74 -49.5 -120t-124.5 -46q-102 0 -383 319 q-141 172 -285 346v-487q0 -80 -44 -129t-122 -49t-122 49t-44 129z" />
<glyph unicode="L" horiz-adv-x="935" d="M63 168v1139q0 80 44.5 129t121.5 49q78 0 122 -49.5t44 -128.5v-996q23 0 109 7.5t139 7.5q275 0 275 -170q0 -74 -46.5 -115t-119.5 -41h-523q-72 0 -119 48t-47 120z" />
<glyph unicode="M" horiz-adv-x="1796" d="M41 147q0 74 20 187q18 92 35 184l131 756q37 211 219 211q129 0 234 -193q74 -137 141 -383q37 -147 74 -293h4q39 145 76 293q66 246 141 383q104 193 232 193q182 0 219 -211l131 -756q18 -92 37 -184q18 -113 18 -187q0 -66 -45 -112.5t-111 -46.5q-96 0 -141 65 q-35 49 -51 156l-98 653h-4l-224 -723q-47 -151 -180 -151h-2q-135 0 -182 151l-223 723h-5l-98 -653q-16 -106 -49 -156q-44 -65 -140 -65h-3q-63 0 -109.5 47t-46.5 112z" />
<glyph unicode="N" horiz-adv-x="1433" d="M76 166v1141q0 80 44 129t122 49q72 0 133 -62q12 -12 96 -118l551 -697h4v699q0 80 44 129t122 49q80 0 123 -49.5t43 -128.5v-1141q0 -80 -43 -129t-123 -49q-70 0 -133 61q-10 12 -96 119l-551 696h-4v-698q0 -80 -43 -129t-123 -49q-78 0 -122 49t-44 129z" />
<glyph unicode="O" horiz-adv-x="1513" d="M41 737q0 338 186 549q197 219 531 219q332 0 528 -219q189 -211 189 -549t-189 -549q-197 -221 -528 -221q-334 0 -531 221q-186 211 -186 549zM397 737q0 -190 82 -315q96 -145 279 -146q180 0 276 146q84 125 84 315t-84 314q-96 145 -276 145q-182 0 -279 -145 q-82 -123 -82 -314z" />
<glyph unicode="P" horiz-adv-x="1153" d="M39 166v1139q0 72 47 120t119 48h407q221 0 360.5 -139.5t139.5 -360.5q0 -328 -227 -434q-141 -66 -514 -66q0 -25 5 -98.5t5 -116.5q0 -270 -176 -270q-78 0 -122 49t-44 129zM371 772h178q94 0 156.5 55.5t62.5 145.5q0 96 -59.5 149.5t-159.5 53.5h-178v-404z" />
<glyph unicode="Q" horiz-adv-x="1513" d="M12 737q0 338 189 549q195 219 528 219q334 0 528 -219q188 -211 189 -549q0 -283 -131 -477q109 -92 119 -102q67 -70 67 -131q0 -59 -39 -101.5t-98 -42.5q-61 0 -143 64q-6 4 -125 110q-156 -90 -367 -90q-334 0 -528 221q-188 211 -189 549zM369 737q0 -190 82 -315 q96 -145 278 -146q59 0 100 15q-33 6 -71.5 66.5t-38.5 99.5q0 59 39 101t98 42q47 0 102 -37q14 -8 89 -67q43 110 43 241q0 190 -84 316q-96 143 -277 143q-180 0 -276 -143q-84 -125 -84 -316z" />
<glyph unicode="R" horiz-adv-x="1169" d="M49 166v1139q0 72 47 120t119 48h399q213 0 350.5 -123t137.5 -334q0 -160 -92 -272.5t-248 -141.5q104 -106 207 -213q151 -166 151 -246q0 -66 -51 -110.5t-119 -44.5q-94 0 -157 82l-408 520h-4q0 -25 8 -126.5t8 -164.5q0 -311 -182 -311q-78 0 -122 49t-44 129z M381 838h219q76 0 123 45t47 121q0 72 -48 115.5t-122 43.5h-219v-325z" />
<glyph unicode="S" horiz-adv-x="1077" d="M16 209q0 72 43 125t113 53q53 0 171 -43t187 -43q176 0 177 139q0 96 -175 152q-268 88 -319 121q-172 106 -172 321q0 223 154 350q143 121 370 121q150 0 258 -39q156 -57 156 -182q0 -66 -42 -112t-106 -46q-49 0 -140 29t-142 29q-61 0 -106.5 -32t-45.5 -89 q0 -76 172 -127q242 -76 320 -129q174 -117 174 -348q0 -240 -162 -371q-150 -121 -395 -121q-154 0 -297 51q-193 68 -193 191z" />
<glyph unicode="T" horiz-adv-x="899" d="M-74 1317q0 156 172 156h705q172 0 172 -156q0 -158 -230 -158q-25 0 -68.5 2t-60.5 2v-997q0 -80 -44 -129t-121 -49q-80 0 -123 49t-43 129v997q-18 0 -62.5 -2t-68.5 -2q-227 0 -228 158z" />
<glyph unicode="U" horiz-adv-x="1388" d="M61 592v715q0 80 44.5 129t121.5 49q178 0 179 -297q0 -70 -11.5 -228.5t-11.5 -236.5q0 -205 59 -305q74 -129 250 -129q180 0 254 129q57 102 58 305q0 80 -10.5 238.5t-10.5 226.5q0 297 176 297q80 0 123 -49.5t43 -128.5v-715q0 -283 -174 -454t-459 -171 q-283 0 -457 171t-174 454z" />
<glyph unicode="V" horiz-adv-x="1335" d="M39 1321q0 68 47 116t115 48q76 0 121 -41q35 -33 63 -111l283 -751l282 751q29 78 64 111q45 41 121 41q68 0 114.5 -48t46.5 -116q0 -66 -204 -567q-121 -295 -244 -588q-37 -92 -64 -123q-43 -55 -120 -55q-78 0 -123 55q-27 31 -62 123q-119 295 -239 588 q-201 502 -201 567z" />
<glyph unicode="W" horiz-adv-x="1935" d="M47 1321q0 70 48 117t118 47q139 0 172 -150l170 -792h4l240 770q53 172 186 172t186 -172l240 -770h4l170 792q33 150 172 150q70 0 118 -47t48 -117q0 -178 -102 -545q-76 -270 -152 -538q-31 -131 -65 -179q-52 -71 -165 -71h-3q-178 0 -236 184l-213 674h-4 l-213 -674q-57 -184 -235 -184q-115 0 -168 71q-35 47 -66 179q-76 268 -151 538q-102 367 -103 545z" />
<glyph unicode="X" horiz-adv-x="1265" d="M6 152q0 92 189 342q119 150 237 299q-98 123 -199 247q-153 204 -153 288q0 71 52 114t122 43q88 0 223 -180l156 -234q78 117 155 234q137 180 224 180q72 0 123 -43t51 -113q0 -84 -154 -289q-98 -125 -198 -247q119 -150 237 -299q189 -250 189 -342 q0 -70 -46.5 -117t-115.5 -47q-111 0 -271 221q-98 147 -194 295q-96 -147 -193 -295q-162 -221 -272 -221q-68 0 -115 47t-47 117z" />
<glyph unicode="Y" horiz-adv-x="1153" d="M43 1446q49 39 119 39q102 0 246 -201q84 -133 167 -266q86 133 170 266q143 201 244 201q72 0 124 -41t52 -109q0 -82 -196 -352q-113 -147 -228 -293v-524q0 -80 -43 -129t-123 -49q-78 0 -121.5 49t-43.5 129v524q-113 145 -226 293q-198 269 -198 351q0 69 57 112z " />
<glyph unicode="Z" horiz-adv-x="1124" d="M-10 184q0 98 305 504q190 244 383 488q-20 0 -136 -9.5t-194 -9.5q-336 0 -336 166q0 74 54 113q47 37 122 37h713q203 0 203 -168q0 -94 -342 -551q-172 -221 -344 -443h540q76 0 126.5 -39.5t50.5 -115.5t-49.5 -116t-127.5 -40h-735q-233 0 -233 184z" />
<glyph unicode="[" horiz-adv-x="567" d="M14 -205v1569q0 141 142 141h280q49 0 83 -33.5t34 -82.5q0 -121 -164 -121h-49q-31 2 -43 2v-1383q12 0 43 2h47q166 1 166 -118q0 -49 -34 -84t-83 -35h-280q-141 0 -142 143z" />
<glyph unicode="\" horiz-adv-x="942" d="M20 1395q0 111 115 110q51 0 98 -63q18 -25 62 -107q162 -301 326 -604q303 -575 303 -653q0 -111 -115 -111q-53 0 -98 64q-20 25 -62 106q-164 301 -325 604q-303 575 -304 654z" />
<glyph unicode="]" horiz-adv-x="718" d="M90 -229q0 119 164 118h49q31 -2 43 -2v1383q-12 0 -45 -2h-47q-164 0 -164 121q0 49 34 82.5t83 33.5h280q141 0 142 -141v-1569q0 -143 -142 -143h-280q-49 0 -83 34.5t-34 84.5z" />
<glyph unicode="^" horiz-adv-x="1142" d="M94 727q0 70 150 336q96 168 192 334q47 88 135 88t136 -88q96 -166 192 -334q150 -266 150 -336q0 -76 -105 -76q-96 0 -141 84l-232 428l-231 -428q-45 -84 -141 -84q-104 0 -105 76z" />
<glyph unicode="_" horiz-adv-x="974" d="M-84 -207q0 51 59 51h1024q60 0 60 -51t-60 -51h-1024q-59 0 -59 51z" />
<glyph unicode="`" horiz-adv-x="675" d="M39 1493q0 61 36 102t97 41q63 0 201 -63q94 -45 190 -90q76 -33 76 -113q0 -61 -37 -102t-96 -41q-63 0 -203 63l-188 90q-76 33 -76 113z" />
<glyph unicode="a" horiz-adv-x="1165" d="M45 551q0 227 129 397q143 184 365 185q174 0 274 -123q45 102 150 102q68 0 113.5 -49t45.5 -117v-790q0 -70 -45 -119t-114 -49q-104 0 -150 102q-100 -123 -274 -123q-223 0 -365 187q-129 170 -129 397zM365 551q0 -111 51 -189q61 -86 168 -86q106 0 166 86 q53 78 53 189t-53 186q-61 86 -166 86q-106 0 -166 -86q-53 -76 -53 -186z" />
<glyph unicode="b" horiz-adv-x="1114" d="M18 156v1269q0 70 46.5 119t113.5 49q174 0 174 -299q0 -55 -7 -143t-7 -109q109 90 264 91q221 0 363 -185q131 -170 131 -397t-129 -397q-143 -186 -365 -187q-174 0 -274 123q-45 -102 -150 -102q-68 0 -114 49t-46 119zM338 551q0 -111 53 -189q59 -86 166 -86 q106 0 166 86q53 78 53 189t-53 186q-59 86 -166 86q-104 0 -166 -86q-53 -76 -53 -186z" />
<glyph unicode="c" horiz-adv-x="999" d="M41 551q0 244 148.5 413t390.5 169q139 0 239 -41q139 -55 139 -172q0 -59 -36.5 -104.5t-94.5 -45.5q-39 0 -112.5 26.5t-116.5 26.5q-115 0 -178 -82q-59 -74 -60 -190q0 -111 54 -186q59 -88 166 -89q47 0 129 29t118 29q53 0 92 -45.5t39 -98.5q0 -109 -141 -172 q-113 -51 -237 -51q-242 0 -394 174q-145 166 -145 410z" />
<glyph unicode="d" horiz-adv-x="1165" d="M45 551q0 227 129 397q143 184 365 185q156 0 264 -91q0 20 -7.5 108.5t-7.5 143.5q0 299 175 299q68 0 113.5 -49t45.5 -119v-1269q0 -70 -46 -119t-113 -49q-104 0 -150 102q-100 -123 -274 -123q-221 0 -365 187q-129 170 -129 397zM365 551q0 -111 51 -189 q61 -86 168 -86q106 0 166 86q53 78 53 189t-53 186q-61 86 -166 86q-106 0 -166 -86q-53 -76 -53 -186z" />
<glyph unicode="e" horiz-adv-x="1157" d="M41 551q0 240 160.5 411t398.5 171q221 0 369.5 -162t148.5 -385q0 -80 -38 -111t-117 -31h-578q0 -92 86 -141q70 -39 170 -39q78 0 187.5 51.5t140.5 51.5q55 0 94 -41t39 -99q0 -131 -197 -204q-150 -55 -305 -56q-250 0 -404.5 166t-154.5 418zM385 666h414 q-2 74 -67.5 134t-139.5 60q-76 0 -141.5 -60.5t-65.5 -133.5z" />
<glyph unicode="f" horiz-adv-x="843" d="M31 952q0 90 61 123q45 25 144 25q0 227 51 336q76 157 277 157h3q213 0 213 -149q0 -113 -56 -127t-110 -25q-59 -35 -59 -192q129 0 172 -15q84 -29 84 -133t-84 -135q-41 -14 -172 -14v-647q0 -70 -45 -119t-115 -49t-114.5 49t-44.5 119v647q-98 0 -144 24 q-61 35 -61 125z" />
<glyph unicode="g" horiz-adv-x="1206" d="M195 948q143 184 364 185q174 0 275 -123q45 102 149 102q68 0 114 -49t46 -117v-837q0 -272 -154.5 -420t-425.5 -148q-152 0 -291 49q-186 68 -186 191q0 51 40 96t93 45q33 0 137.5 -48t200.5 -48q266 0 266 287h-4q-88 -125 -291 -125q-223 0 -350 176 q-112 155 -112 383q0 231 129 401zM385 551q0 -115 51 -191q57 -88 168 -88q109 0 168 88q51 76 51 191q0 111 -53 186q-61 86 -166 86q-106 0 -168 -86q-51 -76 -51 -186z" />
<glyph unicode="h" horiz-adv-x="1157" d="M82 156v1269q0 70 46 119t114 49q174 0 174 -295q0 -55 -7.5 -140t-7.5 -105h5q127 80 270 80q182 0 289 -97q109 -102 108 -282v-598q0 -70 -45 -119t-115 -49q-165 0 -165 263q0 54 6 164.5t6 162.5q0 282 -181 282h-1q-182 0 -183 -282q0 -51 7.5 -162t7.5 -162 q0 -266 -168 -266q-68 0 -114 49t-46 119z" />
<glyph unicode="i" horiz-adv-x="456" d="M39 1401q0 78 55.5 135t134.5 57q78 0 134.5 -57t56.5 -135q0 -80 -56.5 -136.5t-134.5 -56.5q-80 0 -135 56.5t-55 136.5zM70 156v790q0 70 45 118t114 48q68 0 114 -48t46 -118v-790q0 -70 -45 -119t-115 -49q-72 0 -115.5 49t-43.5 119z" />
<glyph unicode="j" horiz-adv-x="477" d="M41 1401q0 78 56.5 135t133.5 57q78 0 134.5 -57t56.5 -135q0 -80 -55.5 -136.5t-135.5 -56.5t-135 56.5t-55 136.5zM72 -291v1237q0 68 46 117t113 49q68 0 114 -49t46 -117v-1237q0 -70 -45 -119t-115 -49t-114.5 49.5t-44.5 118.5z" />
<glyph unicode="k" horiz-adv-x="1116" d="M106 156v1269q0 70 46.5 119t113.5 49q68 0 114 -49t46 -119v-686q96 102 192 207q168 166 248 166q63 0 109.5 -42t46.5 -105q0 -59 -125 -189q-80 -78 -160 -153q92 -113 183 -224q161 -209 161 -262q0 -63 -47 -106t-110 -43q-115 0 -287 229q-104 152 -207 303h-4 q0 -18 6 -103t6 -138q0 -291 -172 -291q-70 0 -115 49t-45 119z" />
<glyph unicode="l" horiz-adv-x="458" d="M70 156v1269q0 70 46 119t113 49q68 0 114 -49t46 -119v-1269q0 -70 -45 -119t-115 -49t-114.5 49t-44.5 119z" />
<glyph unicode="m" horiz-adv-x="1687" d="M45 156v790q0 68 46 117t114 49q115 0 160 -102q78 123 274 123q193 0 297 -132q172 131 309 132q182 0 289 -97q109 -102 108 -282v-598q0 -70 -46 -119t-113 -49q-168 0 -168 278q0 51 6 161t6 161q0 272 -164 272t-164 -272q0 -51 6.5 -161t6.5 -161q0 -278 -167 -278 h-1q-168 0 -168 278q0 51 6 161t6 161q0 272 -164 272t-164 -272q0 -51 6.5 -161t6.5 -161q0 -278 -167 -278h-1q-70 0 -115 49t-45 119z" />
<glyph unicode="n" horiz-adv-x="1081" d="M45 156v790q0 70 45 118t115 48q115 0 160 -102q78 123 274 123q182 0 289 -97q109 -102 108 -282v-598q0 -70 -45 -119t-114 -49q-168 0 -168 266q0 51 7 161.5t7 162.5q0 282 -181 282h-1q-182 0 -183 -282q0 -51 6.5 -162t6.5 -162q0 -266 -166 -266q-70 0 -115 49 t-45 119z" />
<glyph unicode="o" horiz-adv-x="1142" d="M33 551q0 244 145 410q154 172 393 172q242 0 394 -172q145 -166 145 -410t-145 -410q-152 -174 -394 -174t-393 174q-145 166 -145 410zM352 551q0 -111 54 -189q59 -86 165 -86t166 86q54 78 54 189t-54 186q-59 86 -166 86q-106 0 -165 -86q-53 -76 -54 -186z" />
<glyph unicode="p" horiz-adv-x="1171" d="M47 -291v1237q0 68 46 117t114 49q102 0 149 -102q100 123 275 123q221 0 362 -185q131 -170 131 -397t-131 -397q-141 -186 -362 -187q-156 0 -264 90q0 -20 5 -100t5 -131q0 -285 -170 -285q-70 0 -115 49.5t-45 118.5zM367 551q0 -111 53 -189q59 -86 166 -86 q106 0 166 86q53 78 53 189t-53 186q-59 86 -166 86q-106 0 -166 -86q-53 -76 -53 -186z" />
<glyph unicode="q" horiz-adv-x="1185" d="M53 551q0 227 131 397q143 184 363 185q176 0 274 -123q51 102 150 102q70 0 114.5 -49t44.5 -117v-1237q0 -70 -45 -119t-114 -49q-170 0 -170 285q0 51 5 131t5 100q-109 -90 -264 -90q-219 0 -363 187q-131 170 -131 397zM373 551q0 -111 53 -189q61 -86 166 -86 q106 0 168 86q51 78 51 189t-51 186q-61 86 -168 86q-104 0 -166 -86q-53 -76 -53 -186z" />
<glyph unicode="r" horiz-adv-x="782" d="M68 156v790q0 70 45 118t114 48q115 0 160 -102q102 123 221 123q68 0 116 -49t48 -117q0 -102 -100 -142q-92 -31 -185 -63q-100 -57 -100 -213v-393q0 -70 -45 -119t-115 -49t-114.5 49t-44.5 119z" />
<glyph unicode="s" horiz-adv-x="884" d="M60.5 297.5q35.5 48.5 95.5 48.5q45 0 141 -47t166 -47q90 0 90 65q0 55 -129 101q-186 68 -242 104q-129 88 -129 246q0 162 127 266q119 98 285 99q127 0 233 -52q135 -66 136 -178q0 -57 -38 -96t-96 -39q-33 0 -118.5 40t-137.5 40q-84 0 -84 -68q0 -45 129 -94 q178 -68 242 -113q129 -91 129 -243q0 -166 -125 -269q-117 -94 -284 -94q-137 0 -263 47q-163 61 -163 175q0 60 35.5 108.5z" />
<glyph unicode="t" horiz-adv-x="868" d="M43 952q0 90 63 123q43 25 142 25q0 18 -2 64t-2 73q0 242 164 242q163 0 163 -239q0 -30 -2 -76t-2 -64q131 0 172 -15q84 -29 84 -133q0 -106 -84 -135q-41 -14 -172 -14v-647q0 -70 -45 -119t-114 -49q-68 0 -114 49t-46 119v647q-98 0 -144 24q-61 35 -61 125z" />
<glyph unicode="u" horiz-adv-x="1130" d="M70 397v549q0 70 45 118t114 48q166 0 166 -256q0 -49 -7 -158.5t-7 -160.5q0 -272 184 -273q184 0 185 273q0 51 -7.5 160.5t-7.5 158.5q0 256 166 256q70 0 115 -48t45 -118v-549q0 -211 -146 -325q-135 -104 -350 -105q-215 0 -348 105q-147 115 -147 325z" />
<glyph unicode="v" horiz-adv-x="1112" d="M70 952q0 66 48 113t111 47q113 0 154 -121l170 -489h4l170 489q43 121 154 121q66 0 112.5 -47t46.5 -113q0 -57 -49 -180l-260 -653q-51 -131 -176 -131q-123 0 -176 131l-260 653q-49 123 -49 180z" />
<glyph unicode="w" horiz-adv-x="1636" d="M29 958q0 72 45 113t116 41q119 0 152 -113l156 -524h4q25 102 49 203q49 184 102 289q76 145 164 145q90 0 166 -145q53 -104 100 -289q25 -100 50 -203h4l155 524q35 113 152 113q72 0 117 -41t45 -113q0 -41 -50 -180l-223 -631q-55 -159 -196 -159h-2 q-100 0 -170 112q-51 80 -93 234q-27 102 -53 205h-4q-25 -102 -51 -205q-41 -154 -92 -234q-71 -112 -170 -112h-2q-141 0 -199 159l-223 631q-49 139 -49 180z" />
<glyph unicode="x" horiz-adv-x="1075" d="M8 150q0 84 144 237q96 96 192 193q-80 82 -160 165q-129 139 -129 201q0 66 45 116t109 50q100 0 192 -104q68 -94 136 -187q70 92 137 187q92 104 190 104q66 0 110 -50t44 -116q0 -61 -127 -201q-80 -84 -162 -165q98 -96 195 -193q141 -153 141 -237q0 -70 -46 -116 t-118 -46q-82 0 -209 147q-78 98 -155 199q-76 -100 -154 -199q-127 -147 -211 -147q-70 0 -117 46t-47 116z" />
<glyph unicode="y" horiz-adv-x="1173" d="M76 963q0 63 45 106t110 43q117 0 164 -121l189 -493q59 168 118 333q119 281 234 281q72 0 118 -44t46 -118q0 -106 -228 -624q-143 -315 -284 -631q-35 -80 -62 -109q-43 -45 -112 -45q-63 0 -110.5 41t-47.5 103q0 68 66 221l94 200l-172 398q-168 401 -168 459z" />
<glyph unicode="z" horiz-adv-x="989" d="M10 115q0 76 203 352q129 168 256 336q-20 0 -91 -5t-114 -5q-244 0 -244 159q0 147 168 148h615q149 0 149 -113q0 -61 -215 -350q-131 -170 -264 -340q20 0 103 7t137 7h3q263 0 263 -161q0 -150 -168 -150h-647q-154 0 -154 115z" />
<glyph unicode="{" horiz-adv-x="817" d="M53 580q0 72 49.5 85t96.5 23q51 27 51 127q0 45 -7 153.5t-7 166.5q0 172 51 258q68 113 235 112h152q92 0 92 -92q0 -76 -58.5 -85t-115.5 -15q-59 -18 -60 -113q0 -47 7.5 -152.5t7.5 -156.5q0 -137 -43 -209q-57 -88 -193 -100v-4q135 -12 193 -101q43 -72 43 -209 q0 -51 -7.5 -156.5t-7.5 -152.5q0 -96 60 -115q57 -6 115.5 -14t58.5 -84q0 -94 -92 -94h-152q-168 0 -235 115q-51 86 -51 260q0 57 7 165.5t7 151.5q0 98 -51 125q-47 10 -96.5 23.5t-49.5 87.5z" />
<glyph unicode="|" horiz-adv-x="528" d="M141 100v1358q0 59 33 97t90 38t90 -37.5t33 -97.5v-1358q0 -57 -32.5 -95t-90.5 -38q-57 0 -90 38t-33 95z" />
<glyph unicode="}" horiz-adv-x="811" d="M49 -254q0 76 62 86q55 6 112 12q59 18 60 115q0 47 -8.5 152.5t-8.5 156.5q0 137 45 209q55 88 193 101v4q-137 12 -193 100q-45 72 -45 209q0 51 8.5 156.5t8.5 152.5q0 94 -60 113q-57 6 -112 12q-61 12 -62 88q0 92 92 92h152q166 0 233 -112q53 -86 54 -258 q0 -57 -7.5 -166t-7.5 -154q0 -100 51 -127q47 -10 96.5 -23t49.5 -85q0 -74 -49 -87.5t-97 -23.5q-51 -27 -51 -125q0 -43 7.5 -151.5t7.5 -165.5q0 -174 -54 -260q-68 -115 -233 -115h-152q-92 0 -92 94z" />
<glyph unicode="~" horiz-adv-x="1290" d="M115 506q0 117 86 202t202 85q94 0 252 -71t205 -71q57 0 123 62.5t104 62.5q89 1 89 -112q0 -121 -90.5 -203t-211.5 -82q-88 0 -241.5 70.5t-202.5 70.5q-57 0 -121.5 -62.5t-105.5 -62.5q-88 0 -88 111z" />
<glyph horiz-adv-x="1024" d="M-430 264q0 90 62.5 156.5t150.5 66.5l49 -49q0 -27 -37 -43q-57 -29 -69 -39q-37 -31 -37 -90q0 -66 55 -102q49 -33 117 -33q109 0 198 53q106 63 107 164q0 78 -118 251t-118 280q0 203 211 389q203 182 408 182q74 0 119 -39t45 -104q0 -20 -6 -43q213 193 421 192 q70 0 117 -37.5t47 -105.5q0 -123 -176 -288t-299 -167l-57 47q20 39 135 101q145 78 192 114q96 80 97 170q0 66 -72 66q-152 0 -317 -148q-172 -152 -172 -301q0 -109 121.5 -290t121.5 -267q0 -139 -141 -233q-125 -82 -272 -82q-190 0 -263 110q-129 -117 -317 -116 q-123 0 -207 55q-96 63 -96 180zM43 901q0 -98 82 -231q63 -106 129 -213q59 37 108 37t50 -50q0 -29 -37 -45q-59 -27 -70 -34q-37 -31 -37 -91q0 -137 172 -137q109 0 199 53q106 64 106 164q0 76 -117.5 250t-117.5 281q0 68 22 135q-47 -51 -137 -107q-102 -61 -157 -61 q-20 0 -39 13.5t-19 33.5q0 25 111 84q150 80 205 125q109 86 108 176q0 66 -72 66q-152 0 -317 -148q-172 -152 -172 -301zM870 86q0 82 136 348q139 274 198 275q39 0 39 -39q0 -14 -55 -101q-143 -223 -209 -444q-14 -49 -18 -57q-14 -31 -46 -31q-45 0 -45 49zM1276 954 q0 41 44 95.5t83 54.5q49 0 49 -49q0 -41 -44 -96.5t-85 -55.5q-47 0 -47 51z" />
<glyph unicode="&#xa1;" horiz-adv-x="585" d="M115 954q0 74 53 126.5t125 52.5q74 0 126 -52.5t52 -126.5t-52 -127t-126 -53q-72 0 -125 53.5t-53 126.5zM133 -223v725q0 76 43 129t117 53t117 -53t43 -129v-725q0 -76 -43 -129.5t-117 -53.5t-117 53.5t-43 129.5z" />
<glyph unicode="&#xa2;" horiz-adv-x="1210" d="M147 551q0 225 127 387q135 170 355 195q0 8 -2 33.5t-2 39.5q0 111 65 111q63 0 64 -111q0 -14 -2 -41v-32q121 -8 202 -52q111 -57 111 -161q0 -59 -37 -104.5t-94 -45.5q-35 0 -92 21q-66 25 -90 28v-536q27 4 90 27.5t92 23.5q51 0 91 -45.5t40 -98.5 q0 -98 -113 -161q-88 -49 -200 -62v-37q2 -29 2 -45q0 -115 -64 -114q-66 0 -65 114q0 16 2 45t2 37q-221 23 -355 195q-127 164 -127 389zM467 551q0 -92 37 -162q43 -79 125 -104v526q-82 -20 -125 -100q-37 -68 -37 -160z" />
<glyph unicode="&#xa3;" horiz-adv-x="1378" d="M55 741q0 96 80 131q53 23 162 23q-45 119 -45 180q0 213 170 330q145 100 371 100q193 0 344 -90q180 -104 180 -287q0 -61 -47 -106t-109 -45q-63 0 -108 59q-80 109 -84 113q-63 59 -176 59q-82 0 -138 -41q-59 -47 -59 -127q0 -35 39 -147v2h180q72 0 123 -42 t51 -112q0 -115 -110 -143q-43 -12 -199 -12q0 -160 -80 -262q29 0 156 10t207 10q360 0 360 -182q0 -76 -52 -119t-128 -43h-756q-84 0 -137 39q-59 43 -60 123q0 55 76 174q80 127 92 250q-152 0 -196 12q-106 31 -107 143z" />
<glyph unicode="&#xa4;" horiz-adv-x="1200" d="M78 737q0 164 86 289q-80 74 -80 119q0 41 31.5 73.5t72.5 32.5q51 0 123 -73q125 86 289 86t289 -86q72 74 123 73q41 0 72.5 -32.5t31.5 -73.5q0 -45 -80 -119q86 -125 86 -289q0 -162 -86 -291q80 -74 80 -116q0 -43 -31.5 -76t-72.5 -33q-51 0 -123 74 q-125 -86 -289 -86t-289 86q-72 -74 -123 -74q-43 0 -73.5 33t-30.5 76t80 116q-86 129 -86 291zM336 737q0 -117 75.5 -198.5t190.5 -81.5t188.5 81.5t73.5 198.5q0 113 -74.5 196t-187.5 83t-189.5 -83t-76.5 -196z" />
<glyph unicode="&#xa5;" horiz-adv-x="1366" d="M92 1335q0 68 53.5 109t122.5 41q102 0 248 -203q84 -133 166 -264q84 131 168 264q143 203 246 203q72 0 124 -41t52 -109q0 -78 -119 -241q-82 -102 -166 -205q12 0 45 2t53 2q156 0 156 -100q0 -113 -205 -113q-43 0 -108.5 5t-79.5 5v-115q12 0 78.5 5.5t109.5 5.5 q205 0 205 -109q0 -111 -205 -110q-43 0 -109.5 5t-78.5 5q0 -20 3 -71.5t3 -78.5q0 -240 -172 -239q-170 0 -170 239q0 27 2 78t2 72q-12 0 -77.5 -5t-110.5 -5q-205 0 -205 110q0 109 205 109q45 0 111.5 -5.5t76.5 -5.5v115q-12 0 -77.5 -5t-110.5 -5q-205 0 -205 113 q0 100 158 100q20 0 53 -2t43 -2q-82 102 -164 205q-121 164 -121 241z" />
<glyph unicode="&#xa6;" horiz-adv-x="518" d="M135 100v406q0 135 123 135t123 -135v-406q0 -133 -123 -133t-123 133zM135 1053v405q0 59 33 97t90 38t90 -37.5t33 -97.5v-405q0 -59 -32 -97t-91 -38q-57 0 -90 37.5t-33 97.5z" />
<glyph unicode="&#xa7;" horiz-adv-x="1165" d="M76 586q0 203 196 317q-104 90 -104 238q0 168 129 270q119 94 293 94q147 0 274 -71q152 -86 152 -224q0 -53 -38 -96t-89 -43q-59 0 -147.5 93t-159.5 93q-43 0 -75 -24.5t-32 -65.5q0 -86 160 -172q266 -145 295 -168q160 -118 160 -288q0 -231 -191 -332 q111 -92 111 -203q0 -184 -123 -291q-117 -98 -305 -98q-154 0 -283 70q-156 82 -156 223q0 55 39 94t94 39q51 0 134.5 -89t173.5 -89q119 0 118 90q0 80 -161 170q-268 152 -303 178q-162 125 -162 285zM358 631q0 -61 164 -166q100 -57 201 -115q84 49 84 131 q0 61 -164 168q-100 57 -201 115q-84 -51 -84 -133z" />
<glyph unicode="&#xa8;" horiz-adv-x="770" d="M-12 1432q0 66 47 113.5t112 47.5q66 0 113 -47.5t47 -113.5t-47 -114t-113 -48q-68 0 -113.5 48t-45.5 114zM463 1432q0 66 47 113.5t113 47.5t112.5 -47.5t46.5 -113.5t-47 -114t-112 -48q-68 0 -114 48t-46 114z" />
<glyph unicode="&#xa9;" horiz-adv-x="1720" d="M98 737q0 332 216 550t546 218t546 -219t216 -549q0 -332 -216 -551t-546 -219t-546 219.5t-216 550.5zM332 737q0 -242 141 -407q150 -176 387 -176q238 0 387 176q142 165 142 407q0 240 -142 406q-152 176 -387 176q-238 0 -387 -174q-141 -166 -141 -408zM483 743 q0 190 107 314q111 131 297 131q117 0 219 -64q119 -74 119 -184q0 -39 -23.5 -70.5t-62.5 -31.5q-53 0 -80 41t-51 79q-39 43 -121 43q-94 0 -142 -83q-41 -70 -40 -170q0 -102 40 -175q51 -88 146 -88q74 0 117 45q29 41 59.5 84t79.5 43q86 0 86 -90q0 -104 -121 -190 q-113 -78 -221 -78q-184 0 -296 129t-112 315z" />
<glyph unicode="&#xaa;" horiz-adv-x="884" d="M84 1161q0 143 94 243.5t236 100.5q115 0 180 -71q25 72 96 71q111 0 111 -90v-516q0 -90 -111 -90q-72 0 -96 72q-68 -72 -180 -72q-143 0 -236.5 103.5t-93.5 248.5zM305 1157q0 -61 38 -105t99 -44t99.5 44t38.5 105t-38 105.5t-100 44.5q-61 0 -99 -44t-38 -106z" />
<glyph unicode="&#xab;" horiz-adv-x="1112" d="M72 578q0 100 84 174q84 61 170 120q59 43 104 43t75 -31.5t30 -76.5q0 -78 -86 -139l-152 -90q74 -45 149 -91q89 -65 89 -139q0 -45 -30 -77.5t-75 -32.5q-47 0 -104 43q-86 61 -170 120q-84 76 -84 177zM578 578q0 100 84 174q84 61 169 120q59 43 105 43 q45 0 74.5 -31.5t29.5 -76.5q0 -78 -86 -139q-76 -45 -151 -90q74 -45 149 -91q88 -65 88 -139q0 -45 -29.5 -77.5t-74.5 -32.5q-47 0 -105 43q-86 61 -169 120q-84 76 -84 177z" />
<glyph unicode="&#xac;" horiz-adv-x="1333" d="M88 829q0 63 40 100.5t103 37.5h852q94 0 129 -36t35 -130v-420q0 -63 -33.5 -104t-95.5 -41q-141 0 -141 245q0 47 6 121t6 90h-758q-63 0 -103 37t-40 100z" />
<glyph unicode="&#xad;" horiz-adv-x="813" d="M31 578q0 61 36.5 98t98.5 37h483q61 0 98 -37t37 -98q0 -137 -135 -138h-483q-135 0 -135 138z" />
<glyph unicode="&#xae;" horiz-adv-x="1720" d="M98 737q0 332 216 550t546 218t546 -219t216 -549q0 -332 -216 -551t-546 -219t-546 219.5t-216 550.5zM332 737q0 -242 141 -407q150 -176 387 -176q238 0 387 176q142 165 142 407q0 240 -142 406q-152 176 -387 176q-238 0 -387 -174q-141 -166 -141 -408zM557 430 v627q0 94 92 94h256q145 0 215 -51q80 -60 80 -199q0 -92 -47 -156q-53 -70 -141 -75q49 -63 100 -125q68 -94 68 -139q0 -31 -28 -49.5t-58 -18.5q-66 0 -168 141q-61 96 -123 191h-62q0 -14 5.5 -71.5t5.5 -92.5q0 -168 -103 -168q-92 0 -92 92zM741 819h154q109 0 109 90 q0 92 -109 92h-154v-182z" />
<glyph unicode="&#xaf;" horiz-adv-x="749" d="M0 1432q0 59 35 95t94 36h492q59 0 94 -36t35 -95t-35 -95.5t-94 -36.5h-492q-59 0 -94 36t-35 96z" />
<glyph unicode="&#xb0;" horiz-adv-x="735" d="M74 1210q0 123 85 209t208 86t207.5 -86t84.5 -209t-85 -210t-207 -87q-121 0 -207 87t-86 210zM221 1210q0 -59 44 -103t102 -44q59 0 102 44t43 103q0 57 -43 102.5t-102 45.5q-57 0 -101.5 -45t-44.5 -103z" />
<glyph unicode="&#xb1;" horiz-adv-x="1302" d="M72 137q0 63 40 99t103 36h872q63 0 103.5 -36t40.5 -99q0 -137 -144 -137h-872q-143 0 -143 137zM72 754q0 145 235 145q45 0 118 -5t91 -5q0 156 6 182q25 100 129 100t129 -100q6 -27 6 -182q18 0 91 5t118 5q236 0 236 -145q0 -150 -236 -150q-43 0 -115.5 6t-93.5 6 q0 -154 -6 -182q-25 -98 -129 -98t-129 98q-6 29 -6 182q-20 0 -93 -6t-116 -6q-236 0 -235 150z" />
<glyph unicode="&#xb2;" horiz-adv-x="819" d="M74 688q0 53 108 158q100 96 201 190q111 113 111 185q0 33 -28 53t-63 20q-66 0 -100.5 -85t-103.5 -85q-45 0 -77 26t-32 71q0 127 100 209q96 76 228 75q125 0 213 -69q96 -76 96 -199q0 -115 -111 -242q-96 -96 -192 -194q14 0 67.5 4t83.5 4q173 0 173 -109 q0 -98 -99 -98h-450q-45 0 -82 21q-43 25 -43 65z" />
<glyph unicode="&#xb3;" horiz-adv-x="843" d="M86 827q0 41 29.5 68t70.5 27q51 0 105.5 -60.5t132.5 -60.5q39 0 70.5 26.5t31.5 65.5q0 57 -57 76q-53 10 -108.5 25.5t-55.5 74.5q0 68 94.5 92.5t94.5 79.5q0 53 -84 53q-49 0 -104.5 -44t-100.5 -44q-37 0 -62.5 28t-25.5 64q0 100 108 158q90 49 199 49 q115 0 199 -61q92 -70 92 -180q0 -111 -115 -177q160 -61 160 -225q0 -129 -109 -205q-94 -68 -229 -67q-113 0 -217 61q-119 70 -119 176z" />
<glyph unicode="&#xb4;" horiz-adv-x="632" d="M16 1370q0 80 76 113q94 45 191 90q137 63 200 63q59 0 96 -41t37 -102q0 -80 -75 -113q-94 -45 -191 -90q-137 -63 -200 -63q-59 0 -96.5 41t-37.5 102z" />
<glyph unicode="&#xb6;" horiz-adv-x="1363" d="M109 1104q0 213 153 301q119 68 350 68h521q53 0 87.5 -35t34.5 -88v-1598q0 -55 -34.5 -90t-87.5 -35q-55 0 -89 35t-34 90v1534h-199v-1534q0 -55 -35 -90t-88 -35q-55 0 -89 35t-34 90v1000q-197 0 -315 75q-141 92 -141 277z" />
<glyph unicode="&#xb7;" horiz-adv-x="612" d="M129 575q0 72 53.5 126.5t124.5 54.5q72 0 125 -54.5t53 -126.5q0 -74 -53 -127t-125 -53q-74 0 -126 53.5t-52 126.5z" />
<glyph unicode="&#xb8;" horiz-adv-x="411" d="M-25 -362q0 25 16.5 48t39.5 23q20 0 57 -16.5t57 -16.5q70 0 70 68q0 53 -76 57t-76 47q0 35 99 152h141l-80 -109q16 2 49 3q74 0 119 -45t45 -119q0 -88 -86 -142q-76 -47 -170 -47q-205 0 -205 97z" />
<glyph unicode="&#xb9;" horiz-adv-x="622" d="M111 1395q0 98 98 98h188q117 0 117 -113v-673q0 -51 -34 -84t-83 -33q-53 0 -84.5 32.5t-31.5 84.5v587q-88 0 -115 11q-55 18 -55 90z" />
<glyph unicode="&#xba;" horiz-adv-x="831" d="M59 1161q0 152 101.5 248t255.5 96q152 0 254 -96t102 -248t-102.5 -252t-253.5 -100q-156 0 -256.5 99.5t-100.5 252.5zM281 1157q0 -61 36.5 -105t98.5 -44q59 0 97 44t38 105t-38 105.5t-97 44.5q-61 0 -98 -44t-37 -106z" />
<glyph unicode="&#xbb;" horiz-adv-x="1099" d="M66 348q0 76 86 139q76 45 151 91q-76 45 -151 90q-86 63 -86 139q0 45 29.5 76.5t74.5 31.5t104 -43q84 -59 170 -120q84 -74 84 -174t-84 -177q-86 -59 -170 -120q-59 -43 -104 -43t-74.5 32.5t-29.5 77.5zM571 348q0 76 86 139q76 45 152 91l-152 90q-86 63 -86 139 q0 45 30 76.5t75 31.5t104 -43q84 -59 170 -120q84 -74 84 -174t-84 -177q-86 -59 -170 -120q-59 -43 -104 -43t-75 32.5t-30 77.5z" />
<glyph unicode="&#xbc;" horiz-adv-x="1849" d="M16 1395q0 98 99 98h188q117 0 117 -113v-673q0 -51 -33 -84t-84 -33t-84 32.5t-33 84.5v587q-88 0 -114 11q-55 18 -56 90zM332 82q0 82 340 668q193 324 385 647q61 109 127 108q49 0 85 -32.5t36 -81.5q0 -82 -340 -668q-193 -324 -385 -647q-61 -109 -127 -109 q-49 0 -85 33t-36 82zM983 258q0 45 41 104l317 459q55 80 164 80q76 0 125 -39t49 -110v-379q80 0 107 -13q47 -18 47 -88q0 -68 -47 -88q-27 -10 -107 -10q0 -106 -10 -131q-20 -55 -108 -55q-86 0 -107 57q-8 25 -8 129h-354q-109 0 -109 84zM1268 373h178v262h-4z" />
<glyph unicode="&#xbd;" horiz-adv-x="1857" d="M47 1395q0 98 98 98h189q117 0 117 -113v-673q0 -51 -33 -84t-84 -33t-84 32.5t-33 84.5v587q-88 0 -115 11q-55 18 -55 90zM360 82q0 82 340 668q193 324 385 647q61 109 127 108q49 0 85 -32.5t36 -81.5q0 -82 -340 -668q-193 -324 -385 -647q-61 -109 -127 -109 q-49 0 -85 33t-36 82zM1137 86q0 53 108 158q102 96 203 190q109 113 108 184q0 33 -27.5 53.5t-62.5 20.5q-63 0 -98 -84t-106 -84q-45 0 -77 25.5t-32 68.5q0 127 102 209q94 76 226 76q127 0 215 -69q94 -76 94 -199q0 -115 -109 -242q-98 -96 -194 -194q16 0 68.5 4 t82.5 4q172 0 172 -109q0 -98 -98 -98h-450q-45 0 -80 20q-45 25 -45 66z" />
<glyph unicode="&#xbe;" horiz-adv-x="1826" d="M4 827q0 41 29.5 68t70.5 27q51 0 106.5 -60.5t131.5 -60.5q39 0 70.5 26.5t31.5 65.5q0 57 -57 76q-53 10 -108.5 25.5t-55.5 74.5q0 68 94.5 92.5t94.5 79.5q0 53 -84 53q-47 0 -102.5 -44t-102.5 -44q-35 0 -61.5 28t-26.5 64q0 100 108 158q90 49 199 49 q117 0 199 -61q92 -70 92 -180q0 -111 -115 -177q160 -61 160 -225q0 -129 -107 -205q-96 -68 -231 -67q-113 0 -215 61q-121 70 -121 176zM430 82q0 82 342 668q193 324 383 647q63 109 127 108q49 0 85 -32.5t36 -81.5q0 -82 -340 -668q-193 -324 -385 -647 q-61 -109 -127 -109q-47 0 -84 33t-37 82zM971 258q0 45 41 104l317 459q49 70 164 70q76 0 125 -39t49 -111v-368q80 0 107 -13q47 -18 47 -88q0 -68 -47 -88q-27 -10 -107 -10q0 -106 -8 -131q-23 -55 -111 -55q-84 0 -104 57q-10 25 -10 129h-355q-109 0 -108 84z M1255 373h179v262h-4z" />
<glyph unicode="&#xbf;" horiz-adv-x="899" d="M-37 53q0 358 354 428q0 203 160 203q70 0 115 -45t45 -115v-166q0 -90 -82 -118q-78 -20 -154 -41q-82 -35 -82 -136q0 -57 45.5 -95t104.5 -38q90 0 166 93.5t153 93.5q61 0 104.5 -47.5t43.5 -108.5q0 -164 -158 -270q-139 -96 -309 -97q-211 0 -354 123 q-152 127 -152 336zM299 954q0 74 52 126.5t126 52.5q72 0 125 -52.5t53 -126.5t-53 -127t-125 -53q-74 0 -126 53.5t-52 126.5z" />
<glyph unicode="&#xc0;" horiz-adv-x="1306" d="M6 125q0 150 154 547q106 264 215 530q55 150 92 203q70 100 184 100q117 0 187 -100q39 -53 94 -203q106 -266 215 -530q153 -397 153 -547q0 -66 -46 -101.5t-113 -35.5q-102 0 -154 102q-6 14 -61 193h-545q-55 -178 -62 -193q-53 -102 -153 -102q-68 0 -111 35 q-49 37 -49 102zM287 1837q0 61 36.5 102t96.5 41q63 0 201 -63q96 -45 190 -90q76 -33 76 -113q0 -61 -37 -102t-96 -41q-63 0 -201 63q-96 45 -191 90q-76 33 -75 113zM479 594h348l-165 539h-5z" />
<glyph unicode="&#xc1;" horiz-adv-x="1306" d="M6 125q0 150 154 547q106 264 215 530q55 150 92 203q70 100 184 100q117 0 187 -100q39 -53 94 -203q106 -266 215 -530q153 -397 153 -547q0 -66 -46 -101.5t-113 -35.5q-102 0 -154 102q-6 14 -61 193h-545q-55 -178 -62 -193q-53 -102 -153 -102q-68 0 -111 35 q-49 37 -49 102zM420 1714q0 80 76 113q94 45 190 90q137 63 201 63q59 0 96 -41t37 -102q0 -80 -76 -113q-94 -45 -190 -90q-137 -63 -201 -63q-59 0 -96 41t-37 102zM479 594h348l-165 539h-5z" />
<glyph unicode="&#xc2;" horiz-adv-x="1306" d="M6 125q0 150 154 547q106 264 215 530q55 150 92 203q70 100 184 100q117 0 187 -100q39 -53 94 -203q106 -266 215 -530q153 -397 153 -547q0 -66 -46 -101.5t-113 -35.5q-102 0 -154 102q-6 14 -61 193h-545q-55 -178 -62 -193q-53 -102 -153 -102q-68 0 -111 35 q-49 37 -49 102zM238 1696q0 98 100 157q94 41 189.5 84t125.5 43q31 0 126 -43t190 -84q100 -59 100 -157q0 -47 -30.5 -86t-77.5 -39q-55 0 -162 49q-72 37 -146 74q-74 -37 -147 -74q-104 -49 -160 -49q-47 0 -77.5 39t-30.5 86zM479 594h348l-165 539h-5z" />
<glyph unicode="&#xc3;" horiz-adv-x="1306" d="M6 125q0 150 154 547q106 264 215 530q55 150 92 203q70 100 184 100q117 0 187 -100q39 -53 94 -203q106 -266 215 -530q153 -397 153 -547q0 -66 -46 -101.5t-113 -35.5q-102 0 -154 102q-6 14 -61 193h-545q-55 -178 -62 -193q-53 -102 -153 -102q-68 0 -111 35 q-49 37 -49 102zM217 1704q0 84 61.5 154.5t145.5 70.5q80 0 204 -49t163 -49t90 49t90 49q53 0 86 -39t33 -94q0 -84 -61.5 -154.5t-145.5 -70.5q-80 0 -204 48t-163 48t-91 -48t-89 -48q-55 0 -87 39t-32 94zM479 594h348l-165 539h-5z" />
<glyph unicode="&#xc4;" horiz-adv-x="1306" d="M6 125q0 150 154 547q106 264 215 530q55 150 92 203q70 100 184 100q117 0 187 -100q39 -53 94 -203q106 -266 215 -530q153 -397 153 -547q0 -66 -46 -101.5t-113 -35.5q-102 0 -154 102q-6 14 -61 193h-545q-55 -178 -62 -193q-53 -102 -153 -102q-68 0 -111 35 q-49 37 -49 102zM256 1776q0 66 47 113.5t113 47.5t112.5 -47.5t46.5 -113.5t-47 -114t-112 -48q-66 0 -113 48t-47 114zM479 594h348l-165 539h-5zM731 1776q0 66 47 113.5t113 47.5t113 -47.5t47 -113.5t-47.5 -114t-112.5 -48q-66 0 -113 48t-47 114z" />
<glyph unicode="&#xc5;" horiz-adv-x="1306" d="M6 125q0 150 154 547q106 264 215 530q55 150 92 203q70 100 184 100q117 0 187 -100q39 -53 94 -203q106 -266 215 -530q153 -397 153 -547q0 -66 -46 -101.5t-113 -35.5q-102 0 -154 102q-6 14 -61 193h-545q-55 -178 -62 -193q-53 -102 -153 -102q-68 0 -111 35 q-49 37 -49 102zM451 1753q0 82 60 143.5t142 61.5t142.5 -61.5t60.5 -143.5q0 -84 -59.5 -145.5t-143.5 -61.5t-143 61.5t-59 145.5zM479 594h348l-165 539h-5zM561 1753q0 -37 27.5 -65.5t64.5 -28.5t64.5 28.5t27.5 65.5t-27.5 64.5t-64.5 27.5t-64.5 -27.5t-27.5 -64.5z " />
<glyph unicode="&#xc6;" horiz-adv-x="1841" d="M55 152q0 121 281 589l360 582q55 96 117 125q51 25 166 25h627q74 0 120 -41t46 -115q0 -166 -271 -166q-51 0 -134 6t-103 6v-268q20 0 96 5t123 5q260 0 260 -164q0 -166 -260 -166q-45 0 -121 5.5t-98 5.5v-275q23 0 108.5 7.5t138.5 7.5q275 0 275 -170 q0 -74 -46 -115t-120 -41h-522q-115 0 -150 94q-16 47 -16 189h-465q-47 -96 -96 -193q-68 -102 -170 -102q-68 0 -107 47t-39 117zM633 594h299v565h-4z" />
<glyph unicode="&#xc7;" horiz-adv-x="1191" d="M8 737q0 332 197.5 550t525.5 218q160 0 275 -43q166 -59 165 -190q0 -61 -40.5 -110.5t-102.5 -49.5q-45 0 -139 36t-150 36q-184 0 -284 -135q-90 -121 -90 -312q0 -176 81 -297q96 -139 265 -139q61 0 167.5 35t157.5 35q70 0 109 -43t39 -113q0 -131 -174 -199 q-127 -49 -285 -49h-29l-55 -76q16 2 49 3q74 0 119 -45.5t45 -118.5q0 -88 -88 -142q-74 -47 -168 -47q-205 0 -205 97q0 25 15.5 48t40.5 23q20 0 57 -16.5t57 -16.5q70 0 70 68q0 53 -76 57t-76 47q0 39 84 136q-260 51 -409 262q-147 205 -148 491z" />
<glyph unicode="&#xc8;" horiz-adv-x="931" d="M41 168v1137q0 72 46 120t120 48h508q74 0 120 -41t46 -115q0 -166 -271 -166q-51 0 -134 6t-103 6v-268q20 0 96 5t123 5q260 0 260 -164q0 -166 -260 -166q-45 0 -121 5.5t-98 5.5v-275q20 0 106 7.5t139 7.5q275 0 275 -170q0 -74 -46 -115t-120 -41h-520 q-74 0 -120 48t-46 120zM70 1837q0 61 36.5 102t96.5 41q63 0 200 -63q94 -45 191 -90q76 -33 76 -113q0 -61 -37 -102t-96 -41q-63 0 -203 63q-94 45 -189 90q-76 33 -75 113z" />
<glyph unicode="&#xc9;" horiz-adv-x="931" d="M41 168v1137q0 72 46 120t120 48h508q74 0 120 -41t46 -115q0 -166 -271 -166q-51 0 -134 6t-103 6v-268q20 0 96 5t123 5q260 0 260 -164q0 -166 -260 -166q-45 0 -121 5.5t-98 5.5v-275q20 0 106 7.5t139 7.5q275 0 275 -170q0 -74 -46 -115t-120 -41h-520 q-74 0 -120 48t-46 120zM203 1714q0 80 76 113l188 90q139 63 203 63q59 0 96 -41t37 -102q0 -80 -76 -113q-96 -45 -190 -90q-137 -63 -201 -63q-59 0 -96 41t-37 102z" />
<glyph unicode="&#xca;" horiz-adv-x="931" d="M31 1696q0 98 100 157q94 41 189.5 84t125.5 43q29 0 125.5 -43t190.5 -84q100 -59 100 -157q0 -47 -31.5 -86t-76.5 -39q-55 0 -162 49q-74 37 -146 74q-74 -37 -147 -74q-104 -49 -160 -49q-47 0 -77.5 39t-30.5 86zM51 168v1137q0 72 46 120t120 48h508q74 0 120 -41 t46 -115q0 -166 -270 -166q-51 0 -134.5 6t-103.5 6v-268q20 0 96 5t123 5q260 0 260 -164q0 -166 -260 -166q-45 0 -120.5 5.5t-98.5 5.5v-275q20 0 106 7.5t140 7.5q274 0 274 -170q0 -74 -46 -115t-120 -41h-520q-74 0 -120 48t-46 120z" />
<glyph unicode="&#xcb;" horiz-adv-x="931" d="M39 1776q0 66 47 113.5t113 47.5t112.5 -47.5t46.5 -113.5t-47 -114t-112 -48q-66 0 -113 48t-47 114zM41 168v1137q0 72 47 120t119 48h508q74 0 120 -41t46 -115q0 -166 -269 -166q-51 0 -134 6t-105 6v-268q23 0 98.5 5t120.5 5q260 0 260 -164q0 -166 -258 -166 q-47 0 -123 5.5t-98 5.5v-275q23 0 108.5 7.5t136.5 7.5q275 0 275 -170q0 -74 -46 -115t-120 -41h-520q-72 0 -119 48t-47 120zM514 1776q0 66 47 113.5t113 47.5t113 -47.5t47 -113.5t-47.5 -114t-112.5 -48q-66 0 -113 48t-47 114z" />
<glyph unicode="&#xcc;" horiz-adv-x="636" d="M18 1837q0 61 37 102t97 41q63 0 200 -63q96 -45 191 -90q75 -33 75 -113q0 -61 -36.5 -102t-96.5 -41q-63 0 -200 63q-96 45 -191 90q-76 33 -76 113zM219 166v1141q0 80 44 129t122 49t122 -49.5t44 -128.5v-1141q0 -80 -44 -129t-122 -49t-122 49t-44 129z" />
<glyph unicode="&#xcd;" horiz-adv-x="491" d="M-55 1714q0 80 75 113q96 45 191 90q137 63 201 63q61 0 97 -41t36 -102q0 -80 -76 -113l-188 -90q-139 -63 -203 -63q-59 0 -96 41t-37 102zM12 166v1141q0 80 44 129t122 49q80 0 123 -49.5t43 -128.5v-1141q0 -80 -43 -129t-123 -49q-78 0 -122 49t-44 129z" />
<glyph unicode="&#xce;" horiz-adv-x="483" d="M-174 1696q0 98 100 157q94 41 189.5 84t126.5 43t126 -43t189 -84q100 -59 100 -157q0 -47 -30.5 -86t-77.5 -39q-55 0 -160 49q-74 37 -147 74q-74 -37 -146 -74q-106 -49 -162 -49q-45 0 -76.5 39t-31.5 86zM76 166v1141q0 80 44 129t122 49q80 0 123 -49.5t43 -128.5 v-1141q0 -80 -43 -129t-123 -49q-78 0 -122 49t-44 129z" />
<glyph unicode="&#xcf;" horiz-adv-x="483" d="M-156 1776q0 66 47.5 113.5t112.5 47.5q66 0 113 -47.5t47 -113.5t-47 -114t-113 -48t-113 48t-47 114zM76 166v1141q0 80 44 129t122 49q80 0 123 -49.5t43 -128.5v-1141q0 -80 -43 -129t-123 -49q-78 0 -122 49t-44 129zM319 1776q0 66 47.5 113.5t112.5 47.5 q66 0 113 -47.5t47 -113.5t-47 -114t-113 -48t-113 48t-47 114z" />
<glyph unicode="&#xd0;" horiz-adv-x="1513" d="M43 748q0 82 57 110q37 18 127 19q0 25 -7 123t-7 159q0 313 180 314h398q303 0 495 -213q184 -205 184 -512q0 -317 -178 -527q-190 -221 -501 -221h-398q-182 0 -182 322q0 63 8 166.5t8 127.5q-90 0 -127 19q-57 29 -57 113zM559 311h176q190 0 289 125q90 115 90 312 q0 184 -88 294q-96 121 -276 121h-191v-286q16 0 56 2t61 2q180 0 180 -133q0 -135 -178 -136q-23 0 -63 2t-56 2v-305z" />
<glyph unicode="&#xd1;" horiz-adv-x="1433" d="M76 166v1141q0 80 44 129t122 49q72 0 133 -62q12 -12 96 -118l551 -697h4v699q0 80 44 129t122 49q80 0 123 -49.5t43 -128.5v-1141q0 -80 -43 -129t-123 -49q-70 0 -133 61q-10 12 -96 119l-551 696h-4v-698q0 -80 -43 -129t-123 -49q-78 0 -122 49t-44 129zM281 1704 q0 84 62.5 154.5t143.5 70.5q82 0 205 -49t162 -49t91 49t89 49q55 0 87 -39t32 -94q0 -84 -61.5 -154.5t-145.5 -70.5q-80 0 -204 48t-162 48q-39 0 -90.5 -48t-90.5 -48q-53 0 -85.5 39t-32.5 94z" />
<glyph unicode="&#xd2;" horiz-adv-x="1607" d="M88 737q0 338 186 549q197 219 531 219q332 0 528 -219q189 -211 189 -549t-189 -549q-197 -221 -528 -221q-334 0 -531 221q-186 211 -186 549zM438 1837q0 61 36 102t97 41q63 0 201 -63q94 -45 191 -90q75 -33 75 -113q0 -61 -36.5 -102t-96.5 -41q-63 0 -203 63 l-188 90q-76 33 -76 113zM444 737q0 -190 82 -315q96 -145 279 -146q180 0 276 146q84 125 84 315t-84 314q-96 145 -276 145q-182 0 -279 -145q-82 -123 -82 -314z" />
<glyph unicode="&#xd3;" horiz-adv-x="1513" d="M41 737q0 338 186 549q197 219 531 219q332 0 528 -219q189 -211 189 -549t-189 -549q-197 -221 -528 -221q-334 0 -531 221q-186 211 -186 549zM397 737q0 -190 82 -315q96 -145 279 -146q180 0 276 146q84 125 84 315t-84 314q-96 145 -276 145q-182 0 -279 -145 q-82 -123 -82 -314zM524 1714q0 80 76 113l188 90q139 63 203 63q59 0 96 -41t37 -102q0 -80 -75 -113q-96 -45 -191 -90q-137 -63 -201 -63q-61 0 -97 41t-36 102z" />
<glyph unicode="&#xd4;" horiz-adv-x="1513" d="M41 737q0 338 186 549q197 219 531 219q332 0 528 -219q189 -211 189 -549t-189 -549q-197 -221 -528 -221q-334 0 -531 221q-186 211 -186 549zM342 1696q0 98 100 157q94 41 189.5 84t126.5 43q29 0 127 -45q92 -41 186 -82q103 -59 103 -157q0 -47 -32 -86t-77 -39 q-55 0 -162 49q-74 37 -145 74l-148 -74q-106 -49 -159 -49q-47 0 -78 39t-31 86zM397 737q0 -190 82 -315q96 -145 279 -146q180 0 276 146q84 125 84 315t-84 314q-96 145 -276 145q-182 0 -279 -145q-82 -123 -82 -314z" />
<glyph unicode="&#xd5;" horiz-adv-x="1513" d="M41 737q0 338 186 549q197 219 531 219q332 0 528 -219q189 -211 189 -549t-189 -549q-197 -221 -528 -221q-334 0 -531 221q-186 211 -186 549zM322 1704q0 84 61 154.5t145 70.5q80 0 203 -49t164 -49q37 0 89 49t91 49q53 0 86 -39t33 -94q0 -84 -62.5 -154.5 t-144.5 -70.5t-205 48t-161 48q-39 0 -91.5 -48t-89.5 -48q-55 0 -86.5 39t-31.5 94zM397 737q0 -190 82 -315q96 -145 279 -146q180 0 276 146q84 125 84 315t-84 314q-96 145 -276 145q-182 0 -279 -145q-82 -123 -82 -314z" />
<glyph unicode="&#xd6;" horiz-adv-x="1607" d="M86 737q0 338 188 549q197 219 529 219q334 0 530 -219q187 -211 187 -549t-187 -549q-197 -221 -530 -221q-334 0 -529 221q-188 211 -188 549zM406 1776q0 66 47 113.5t112 47.5q66 0 113 -47.5t47 -113.5t-47 -114t-113 -48t-112.5 48t-46.5 114zM442 737 q0 -190 84 -315q96 -145 277 -146q182 0 278 146q82 125 82 315t-82 314q-96 145 -278 145q-180 0 -277 -145q-84 -123 -84 -314zM881 1776q0 66 47 113.5t112 47.5q66 0 113 -47.5t47 -113.5t-47 -114t-113 -48t-112.5 48t-46.5 114z" />
<glyph unicode="&#xd7;" horiz-adv-x="1284" d="M137 215q0 66 137 203q90 84 183 168q-90 82 -181 164q-139 139 -139 198q0 49 45 98.5t97 49.5q55 0 198 -146q82 -88 166 -178l164 180q141 143 203 144q47 0 93 -50.5t46 -99.5q0 -53 -145 -196q-88 -82 -177 -164q88 -84 179 -168q143 -142 143 -201q0 -49 -48 -96 t-97 -47q-51 0 -197 147q-82 90 -164 178q-82 -88 -166 -178q-143 -147 -194 -147q-49 0 -97.5 46t-48.5 95z" />
<glyph unicode="&#xd8;" horiz-adv-x="1611" d="M57 0q0 51 70 131q53 55 104 111q-143 201 -143 495q0 338 188 549q197 219 529 219q260 0 438 -135q49 57 98 113q76 82 115 82t67.5 -23.5t28.5 -62.5q0 -49 -69 -131q-53 -55 -107 -113q145 -203 146 -498q0 -338 -187 -549q-197 -221 -530 -221q-262 0 -440 139 q-47 -55 -97 -112q-74 -78 -114 -78q-37 0 -67 23.5t-30 60.5zM444 737q0 -123 37 -217l539 600q-84 76 -215 76q-180 0 -277 -143q-84 -125 -84 -316zM588 354q84 -78 217 -78q182 0 278 146q82 125 82 315q0 119 -37 221z" />
<glyph unicode="&#xd9;" horiz-adv-x="1388" d="M61 592v715q0 80 44.5 129t121.5 49q178 0 179 -297q0 -70 -11.5 -228.5t-11.5 -236.5q0 -205 59 -305q74 -129 250 -129q180 0 254 129q57 102 58 305q0 80 -10.5 238.5t-10.5 226.5q0 297 176 297q80 0 123 -49.5t43 -128.5v-715q0 -283 -174 -454t-459 -171 q-283 0 -457 171t-174 454zM328 1837q0 61 36.5 102t96.5 41q63 0 203 -63l188 -90q76 -33 76 -113q0 -61 -36 -102t-97 -41q-63 0 -201 63q-94 45 -191 90q-76 33 -75 113z" />
<glyph unicode="&#xda;" horiz-adv-x="1388" d="M61 592v715q0 80 44.5 129t121.5 49q178 0 179 -297q0 -70 -11.5 -228.5t-11.5 -236.5q0 -205 59 -305q74 -129 250 -129q180 0 254 129q57 102 58 305q0 80 -10.5 238.5t-10.5 226.5q0 297 176 297q80 0 123 -49.5t43 -128.5v-715q0 -283 -174 -454t-459 -171 q-283 0 -457 171t-174 454zM461 1714q0 80 76 113q96 45 190 90q137 63 201 63q61 0 97 -41t36 -102q0 -80 -76 -113l-188 -90q-139 -63 -203 -63q-59 0 -96 41t-37 102z" />
<glyph unicode="&#xdb;" horiz-adv-x="1388" d="M61 592v715q0 80 44.5 129t121.5 49q178 0 179 -297q0 -70 -11.5 -228.5t-11.5 -236.5q0 -205 59 -305q74 -129 250 -129q180 0 254 129q57 102 58 305q0 80 -10.5 238.5t-10.5 226.5q0 297 176 297q80 0 123 -49.5t43 -128.5v-715q0 -283 -174 -454t-459 -171 q-283 0 -457 171t-174 454zM279 1696q0 98 102 157q94 41 189.5 84t123.5 43q31 0 126 -43t190 -84q100 -59 100 -157q0 -47 -30.5 -86t-78.5 -39q-53 0 -159 49l-148 74q-72 -37 -145 -74q-106 -49 -162 -49q-45 0 -76.5 39t-31.5 86z" />
<glyph unicode="&#xdc;" horiz-adv-x="1480" d="M109 592v715q0 80 44 129t121 49q178 0 179 -297q0 -70 -11.5 -228.5t-11.5 -236.5q0 -205 57 -305q74 -129 252 -129t252 129q59 102 60 305q0 80 -11.5 238.5t-11.5 226.5q0 297 178 297q78 0 122 -49.5t44 -128.5v-715q0 -283 -175 -454t-458 -171t-456.5 171 t-173.5 454zM344 1776q0 66 47 113.5t113 47.5t113 -47.5t47 -113.5t-47.5 -114t-112.5 -48q-66 0 -113 48t-47 114zM819 1776q0 66 47 113.5t113 47.5t113 -47.5t47 -113.5t-47.5 -114t-112.5 -48q-66 0 -113 48t-47 114z" />
<glyph unicode="&#xdd;" horiz-adv-x="1230" d="M25 1335q0 68 53 109t123 41q102 0 245 -201l168 -266q86 133 170 266q143 201 244 201q72 0 124 -41t52 -109q0 -82 -196 -352q-113 -147 -228 -293v-524q0 -80 -43 -129t-123 -49q-78 0 -121.5 49t-43.5 129v524q-113 145 -226 293q-199 270 -198 352zM381 1714 q0 80 76 113q96 45 190 90q137 63 201 63q61 0 97 -41t36 -102q0 -80 -76 -113l-188 -90q-139 -63 -203 -63q-59 0 -96 41t-37 102z" />
<glyph unicode="&#xde;" horiz-adv-x="1228" d="M78 166v1141q0 178 166 178q102 0 139 -70q27 -51 27 -162q356 0 508 -69q233 -109 233 -428q0 -328 -227 -434q-143 -66 -514 -66q0 -135 -19 -182q-33 -86 -147 -86q-166 0 -166 178zM410 555h178q92 0 155.5 55.5t63.5 145.5q0 96 -60.5 148t-158.5 52h-178v-401z" />
<glyph unicode="&#xdf;" horiz-adv-x="1253" d="M96 156v946q0 211 137.5 351t348.5 140q203 0 334 -120.5t131 -321.5q0 -180 -132 -272q119 -45 185 -160q59 -105 59 -240q0 -201 -139 -356.5t-338 -155.5q-78 0 -130 39t-52 115q0 94 84 133q80 31 157 63q86 51 86 172q0 129 -90 177q-82 27 -164 53q-88 35 -88 137 q0 84 62 121q59 25 117 49q63 35 63 121q0 59 -41 97t-100 38q-182 0 -183 -352q0 -92 14.5 -298t14.5 -298q0 -346 -176 -346q-70 0 -115 49t-45 119z" />
<glyph unicode="&#xe0;" horiz-adv-x="1165" d="M45 551q0 227 129 397q143 184 365 185q174 0 274 -123q45 102 150 102q68 0 113.5 -49t45.5 -117v-790q0 -70 -45 -119t-114 -49q-104 0 -150 102q-100 -123 -274 -123q-223 0 -365 187q-129 170 -129 397zM236 1493q0 61 35.5 102t97.5 41q63 0 200 -63q94 -45 191 -90 q76 -33 76 -113q0 -61 -37 -102t-97 -41q-63 0 -202 63q-94 45 -189 90q-76 33 -75 113zM365 551q0 -111 51 -189q61 -86 168 -86q106 0 166 86q53 78 53 189t-53 186q-61 86 -166 86q-106 0 -166 -86q-53 -76 -53 -186z" />
<glyph unicode="&#xe1;" horiz-adv-x="1165" d="M45 551q0 227 129 397q143 184 365 185q174 0 274 -123q45 102 150 102q68 0 113.5 -49t45.5 -117v-790q0 -70 -45 -119t-114 -49q-104 0 -150 102q-100 -123 -274 -123q-223 0 -365 187q-129 170 -129 397zM365 551q0 -111 51 -189q61 -86 168 -86q106 0 166 86 q53 78 53 189t-53 186q-61 86 -166 86q-106 0 -166 -86q-53 -76 -53 -186zM369 1370q0 80 75 113q94 45 189 90q139 63 203 63q59 0 96 -41t37 -102q0 -80 -76 -113q-96 -45 -191 -90q-137 -63 -200 -63q-61 0 -97 41t-36 102z" />
<glyph unicode="&#xe2;" horiz-adv-x="1165" d="M45 551q0 227 129 397q143 184 365 185q174 0 274 -123q45 102 150 102q68 0 113.5 -49t45.5 -117v-790q0 -70 -45 -119t-114 -49q-104 0 -150 102q-100 -123 -274 -123q-223 0 -365 187q-129 170 -129 397zM186 1352q0 98 101 157q94 41 189 84t126 43q29 0 125 -43 t191 -84q100 -59 100 -157q0 -47 -32 -86t-77 -39q-55 0 -161 49q-74 37 -146 74q-74 -37 -147 -74q-106 -49 -160 -49q-47 0 -78 39t-31 86zM365 551q0 -111 51 -189q61 -86 168 -86q106 0 166 86q53 78 53 189t-53 186q-61 86 -166 86q-106 0 -166 -86q-53 -76 -53 -186z " />
<glyph unicode="&#xe3;" horiz-adv-x="1165" d="M45 551q0 227 129 397q143 184 365 185q174 0 274 -123q45 102 150 102q68 0 113.5 -49t45.5 -117v-790q0 -70 -45 -119t-114 -49q-104 0 -150 102q-100 -123 -274 -123q-223 0 -365 187q-129 170 -129 397zM166 1360q0 84 61.5 154.5t145.5 70.5q80 0 203.5 -49 t162.5 -49q37 0 89.5 49t91.5 49q53 0 85.5 -39t32.5 -94q0 -84 -62.5 -154.5t-144.5 -70.5t-204.5 48t-161.5 48t-91 -48t-89 -48q-55 0 -87 39t-32 94zM365 551q0 -111 51 -189q61 -86 168 -86q106 0 166 86q53 78 53 189t-53 186q-61 86 -166 86q-106 0 -166 -86 q-53 -76 -53 -186z" />
<glyph unicode="&#xe4;" horiz-adv-x="1165" d="M45 551q0 227 129 397q143 184 365 185q174 0 274 -123q45 102 150 102q68 0 113.5 -49t45.5 -117v-790q0 -70 -45 -119t-114 -49q-104 0 -150 102q-100 -123 -274 -123q-223 0 -365 187q-129 170 -129 397zM205 1432q0 66 46 113.5t114 47.5q66 0 112.5 -47.5 t46.5 -113.5t-47 -114t-112 -48q-66 0 -113 48t-47 114zM365 551q0 -111 51 -189q61 -86 168 -86q106 0 166 86q53 78 53 189t-53 186q-61 86 -166 86q-106 0 -166 -86q-53 -76 -53 -186zM680 1432q0 66 46 113.5t114 47.5q66 0 112.5 -47.5t46.5 -113.5t-47 -114t-112 -48 q-66 0 -113 48t-47 114z" />
<glyph unicode="&#xe5;" horiz-adv-x="1165" d="M45 551q0 227 129 397q143 184 365 185q174 0 274 -123q45 102 150 102q68 0 113.5 -49t45.5 -117v-790q0 -70 -45 -119t-114 -49q-104 0 -150 102q-100 -123 -274 -123q-223 0 -365 187q-129 170 -129 397zM365 551q0 -111 51 -189q61 -86 168 -86q106 0 166 86 q53 78 53 189t-53 186q-61 86 -166 86q-106 0 -166 -86q-53 -76 -53 -186zM399 1380q0 82 59.5 143.5t143.5 61.5q82 0 142.5 -61.5t60.5 -143.5q0 -84 -60.5 -145t-142.5 -61q-84 0 -143.5 61t-59.5 145zM510 1380q0 -37 26.5 -65.5t65.5 -28.5q37 0 64.5 28.5t27.5 65.5 t-27.5 65t-64.5 28t-64.5 -28t-27.5 -65z" />
<glyph unicode="&#xe6;" horiz-adv-x="1974" d="M70 551q0 227 131 397q143 184 362 185q176 0 271 -123h4q0 123 137 123q84 0 119 -74q100 74 292 74q223 0 371 -162t148 -385q0 -141 -156 -142h-602q0 -88 102 -139q82 -41 178 -41q82 0 190.5 51.5t137.5 51.5q57 0 95 -41t38 -99q0 -131 -196 -204 q-147 -55 -306 -56q-188 0 -296 74q-37 -74 -119 -74q-133 0 -133 123h-4q-94 -123 -271 -123q-221 0 -362 187q-131 170 -131 397zM389 551q0 -111 53 -189q59 -86 166 -86q106 0 166 86q53 78 53 189t-53 186q-59 86 -166 86q-104 0 -166 -86q-53 -76 -53 -186zM1147 666 h438q0 78 -69.5 136t-149.5 58t-149.5 -58.5t-69.5 -135.5z" />
<glyph unicode="&#xe7;" horiz-adv-x="999" d="M41 551q0 244 148.5 413t390.5 169q139 0 239 -41q139 -55 139 -172q0 -59 -36.5 -104.5t-94.5 -45.5q-39 0 -112.5 26.5t-116.5 26.5q-115 0 -178 -82q-59 -74 -60 -190q0 -111 54 -186q59 -88 166 -89q47 0 129 29t118 29q53 0 92 -45.5t39 -98.5q0 -106 -139 -172 q-111 -49 -235 -51l-56 -76q16 2 50 3q74 0 118.5 -45.5t44.5 -118.5q0 -88 -88 -142q-74 -47 -168 -47q-205 0 -204 97q0 25 15 48t40 23q20 0 57 -16.5t58 -16.5q70 0 69 68q0 53 -75.5 57t-75.5 47q0 39 82 134q-188 45 -299 202.5t-111 366.5z" />
<glyph unicode="&#xe8;" horiz-adv-x="1157" d="M41 551q0 240 160.5 411t398.5 171q221 0 369.5 -162t148.5 -385q0 -80 -38 -111t-117 -31h-578q0 -92 86 -141q70 -39 170 -39q78 0 187.5 51.5t140.5 51.5q55 0 94 -41t39 -99q0 -131 -197 -204q-150 -55 -305 -56q-250 0 -404.5 166t-154.5 418zM213 1493q0 61 36 102 t97 41q63 0 201 -63q94 -45 190 -90q76 -33 76 -113q0 -61 -37 -102t-96 -41q-63 0 -203 63l-188 90q-76 33 -76 113zM385 666h414q-2 74 -67.5 134t-139.5 60q-76 0 -141.5 -60.5t-65.5 -133.5z" />
<glyph unicode="&#xe9;" horiz-adv-x="1157" d="M41 551q0 240 160.5 411t398.5 171q221 0 369.5 -162t148.5 -385q0 -80 -38 -111t-117 -31h-578q0 -92 86 -141q70 -39 170 -39q78 0 187.5 51.5t140.5 51.5q55 0 94 -41t39 -99q0 -131 -197 -204q-150 -55 -305 -56q-250 0 -404.5 166t-154.5 418zM346 1370q0 80 76 113 l188 90q139 63 203 63q59 0 96 -41t37 -102q0 -80 -76 -113q-96 -45 -190 -90q-137 -63 -201 -63q-61 0 -97 41t-36 102zM385 666h414q-2 74 -67.5 134t-139.5 60q-76 0 -141.5 -60.5t-65.5 -133.5z" />
<glyph unicode="&#xea;" horiz-adv-x="1157" d="M41 551q0 240 160.5 411t398.5 171q221 0 369.5 -162t148.5 -385q0 -80 -38 -111t-117 -31h-578q0 -92 86 -141q70 -39 170 -39q78 0 187.5 51.5t140.5 51.5q55 0 94 -41t39 -99q0 -131 -197 -204q-150 -55 -305 -56q-250 0 -404.5 166t-154.5 418zM164 1352 q0 98 100 157q94 41 189.5 84t126.5 43q29 0 127 -45q92 -41 186 -82q102 -59 102 -157q0 -47 -31.5 -86t-76.5 -39q-55 0 -162 49q-74 37 -145 74l-148 -74q-106 -49 -160 -49q-47 0 -77.5 39t-30.5 86zM385 666h414q-2 74 -67.5 134t-139.5 60q-76 0 -141.5 -60.5 t-65.5 -133.5z" />
<glyph unicode="&#xeb;" horiz-adv-x="1157" d="M41 551q0 240 160.5 411t398.5 171q221 0 369.5 -162t148.5 -385q0 -80 -38 -111t-117 -31h-578q0 -92 86 -141q70 -39 170 -39q78 0 187.5 51.5t140.5 51.5q55 0 94 -41t39 -99q0 -131 -197 -204q-150 -55 -305 -56q-250 0 -404.5 166t-154.5 418zM182 1432 q0 66 46 113.5t114 47.5q66 0 113 -47.5t47 -113.5t-47 -114t-113 -48q-68 0 -114 48t-46 114zM385 666h414q-2 74 -67.5 134t-139.5 60q-76 0 -141.5 -60.5t-65.5 -133.5zM657 1432q0 66 46.5 113.5t113.5 47.5q66 0 113 -47.5t47 -113.5t-47 -114t-113 -48q-68 0 -114 48 t-46 114z" />
<glyph unicode="&#xec;" horiz-adv-x="456" d="M-72 1493q0 61 37 102t96 41q63 0 201 -63q96 -45 191 -90q75 -33 75 -113q0 -61 -36.5 -102t-96.5 -41q-63 0 -200 63q-96 45 -191 90q-76 33 -76 113zM135 156v790q0 70 45 118t115 48t115 -48t45 -118v-790q0 -70 -45 -119t-115 -49t-115 49t-45 119z" />
<glyph unicode="&#xed;" horiz-adv-x="456" d="M-72 1370q0 80 76 113q94 45 191 90q137 63 200 63q59 0 96 -41t37 -102q0 -80 -75 -113q-94 -45 -191 -90q-137 -63 -201 -63q-59 0 -96 41t-37 102zM2 156v790q0 70 45 118t115 48t115 -48t45 -118v-790q0 -70 -45.5 -119t-114.5 -49q-70 0 -115 49t-45 119z" />
<glyph unicode="&#xee;" horiz-adv-x="456" d="M-186 1352q0 98 100 157q94 41 189.5 84t125.5 43q29 0 125.5 -43t188.5 -84q102 -59 102 -157q0 -47 -31.5 -86t-76.5 -39q-55 0 -162 49q-74 37 -146 74q-74 -37 -147 -74q-106 -49 -160 -49q-47 0 -77.5 39t-30.5 86zM70 156v790q0 70 45 118t114 48q68 0 114 -48 t46 -118v-790q0 -70 -45 -119t-115 -49q-72 0 -115.5 49t-43.5 119z" />
<glyph unicode="&#xef;" horiz-adv-x="456" d="M-168 1432q0 66 46 113.5t114 47.5q66 0 113 -47.5t47 -113.5t-47.5 -114t-112.5 -48q-68 0 -114 48t-46 114zM70 156v790q0 70 45 118t114 48q68 0 114 -48t46 -118v-790q0 -70 -45 -119t-115 -49q-72 0 -115.5 49t-43.5 119zM307 1432q0 66 46 113.5t114 47.5 q66 0 113 -47.5t47 -113.5t-47.5 -114t-112.5 -48q-68 0 -114 48t-46 114z" />
<glyph unicode="&#xf0;" horiz-adv-x="1222" d="M72 518q0 231 137 390t364 159q154 0 213 -66l5 5q-86 174 -205 231q-72 -37 -142 -74q-113 -53 -147 -53q-29 0 -51.5 26.5t-22.5 57.5q0 49 78 90q59 29 117 55q-80 45 -99 60q-57 43 -57 94q0 59 60 92q49 29 112 29q162 0 311 -115q205 102 236 103q35 0 55.5 -26 t20.5 -60q0 -45 -66 -82l-106 -50q264 -233 264 -768q0 -279 -127 -452q-143 -197 -412 -197q-236 0 -387 157t-151 394zM391 518q0 -96 62.5 -169t156.5 -73t160 74q59 72 59 168q0 94 -62 167t-157 73q-92 0 -155.5 -73t-63.5 -167z" />
<glyph unicode="&#xf1;" horiz-adv-x="1081" d="M45 156v790q0 70 45 118t115 48q115 0 160 -102q78 123 274 123q182 0 289 -97q109 -102 108 -282v-598q0 -70 -45 -119t-114 -49q-168 0 -168 266q0 51 7 161.5t7 162.5q0 283 -182 282q-182 0 -183 -282q0 -51 6.5 -162t6.5 -162q0 -266 -166 -266q-70 0 -115 49 t-45 119zM104 1360q0 84 61.5 154.5t145.5 70.5q80 0 204 -49t163 -49t90 49t90 49q53 0 86 -39t33 -94q0 -84 -61.5 -154.5t-145.5 -70.5q-80 0 -204 48t-163 48t-90 -48t-90 -48q-55 0 -87 39t-32 94z" />
<glyph unicode="&#xf2;" horiz-adv-x="1142" d="M33 551q0 244 145 410q154 172 393 172q242 0 394 -172q145 -166 145 -410t-145 -410q-152 -174 -394 -174t-393 174q-145 166 -145 410zM205 1493q0 61 37 102t96 41q63 0 201 -63q96 -45 190 -90q76 -33 76 -113q0 -61 -37 -102t-96 -41q-63 0 -201 63q-96 45 -190 90 q-76 33 -76 113zM352 551q0 -111 54 -189q59 -86 165 -86t166 86q54 78 54 189t-54 186q-59 86 -166 86q-106 0 -165 -86q-53 -76 -54 -186z" />
<glyph unicode="&#xf3;" horiz-adv-x="1142" d="M33 551q0 244 145 410q154 172 393 172q242 0 394 -172q145 -166 145 -410t-145 -410q-152 -174 -394 -174t-393 174q-145 166 -145 410zM338 1370q0 80 76 113q94 45 190 90q137 63 201 63q59 0 96 -41t37 -102q0 -80 -76 -113q-94 -45 -190 -90q-137 -63 -201 -63 q-59 0 -96 41t-37 102zM352 551q0 -111 54 -189q59 -86 165 -86t166 86q54 78 54 189t-54 186q-59 86 -166 86q-106 0 -165 -86q-53 -76 -54 -186z" />
<glyph unicode="&#xf4;" horiz-adv-x="1142" d="M33 551q0 244 145 410q154 172 393 172q242 0 394 -172q145 -166 145 -410t-145 -410q-152 -174 -394 -174t-393 174q-145 166 -145 410zM156 1352q0 98 100 157q94 41 189.5 84t125.5 43q31 0 126.5 -43t189.5 -84q100 -59 100 -157q0 -47 -30.5 -86t-77.5 -39 q-55 0 -160 49l-148 74q-74 -37 -145 -74q-106 -49 -162 -49q-47 0 -77.5 39t-30.5 86zM352 551q0 -111 54 -189q59 -86 165 -86t166 86q54 78 54 189t-54 186q-59 86 -166 86q-106 0 -165 -86q-53 -76 -54 -186z" />
<glyph unicode="&#xf5;" horiz-adv-x="1142" d="M33 551q0 244 145 410q154 172 393 172q242 0 394 -172q145 -166 145 -410t-145 -410q-152 -174 -394 -174t-393 174q-145 166 -145 410zM135 1360q0 84 62.5 154.5t144.5 70.5q80 0 204 -49t163 -49t90 49t90 49q53 0 86 -39t33 -94q0 -84 -61.5 -154.5t-145.5 -70.5 q-80 0 -204 48t-163 48t-90 -48t-90 -48q-53 0 -86 39t-33 94zM352 551q0 -111 54 -189q59 -86 165 -86t166 86q54 78 54 189t-54 186q-59 86 -166 86q-106 0 -165 -86q-53 -76 -54 -186z" />
<glyph unicode="&#xf6;" horiz-adv-x="1142" d="M33 551q0 244 145 410q154 172 393 172q242 0 394 -172q145 -166 145 -410t-145 -410q-152 -174 -394 -174t-393 174q-145 166 -145 410zM174 1432q0 66 47 113.5t113 47.5t113 -47.5t47 -113.5t-47.5 -114t-112.5 -48q-66 0 -113 48t-47 114zM352 551q0 -111 54 -189 q59 -86 165 -86t166 86q54 78 54 189t-54 186q-59 86 -166 86q-106 0 -165 -86q-53 -76 -54 -186zM649 1432q0 66 47 113.5t113 47.5t113 -47.5t47 -113.5t-47.5 -114t-112.5 -48q-66 0 -113 48t-47 114z" />
<glyph unicode="&#xf7;" horiz-adv-x="1134" d="M-12 586q0 63 40 99t103 36h873q63 0 103 -36t40 -99q0 -137 -143 -137h-873q-143 0 -143 137zM377 147q0 76 57.5 134.5t132.5 58.5q76 0 133.5 -58.5t57.5 -134.5q0 -78 -56.5 -135t-134.5 -57t-134 57.5t-56 134.5zM377 1024q0 76 57.5 134.5t132.5 58.5 q76 0 133.5 -58.5t57.5 -134.5q0 -78 -56.5 -135.5t-134.5 -57.5t-134 57.5t-56 135.5z" />
<glyph unicode="&#xf8;" horiz-adv-x="1253" d="M43 12q0 39 57 103l88 88q-100 147 -100 348q0 244 148.5 413t390.5 169q193 0 334 -115q41 43 81 88q61 59 95 59q31 0 52 -23.5t21 -54.5q0 -37 -57 -102q-43 -43 -86 -88q98 -150 98 -346q0 -244 -145 -410q-152 -174 -393 -174q-193 0 -334 115l-82 -86 q-61 -59 -94 -59q-31 0 -52.5 22.5t-21.5 52.5zM408 551q0 -59 14 -105l321 340q-49 37 -116 37q-106 0 -166 -86q-53 -76 -53 -186zM512 313q49 -37 115 -37q106 0 166 86q53 78 53 189q0 59 -15 100z" />
<glyph unicode="&#xf9;" horiz-adv-x="1130" d="M70 397v549q0 70 45 118t114 48q166 0 166 -256q0 -49 -7 -158.5t-7 -160.5q0 -272 184 -273q184 0 185 273q0 51 -7.5 160.5t-7.5 158.5q0 256 166 256q70 0 115 -48t45 -118v-549q0 -211 -146 -325q-135 -104 -350 -105q-215 0 -348 105q-147 115 -147 325zM199 1493 q0 61 36.5 102t96.5 41q63 0 200 -63q96 -45 191 -90q76 -33 76 -113q0 -61 -37 -102t-96 -41q-63 0 -201 63q-96 45 -191 90q-76 33 -75 113z" />
<glyph unicode="&#xfa;" horiz-adv-x="1130" d="M70 397v549q0 70 45 118t114 48q166 0 166 -256q0 -49 -7 -158.5t-7 -160.5q0 -272 184 -273q184 0 185 273q0 51 -7.5 160.5t-7.5 158.5q0 256 166 256q70 0 115 -48t45 -118v-549q0 -211 -146 -325q-135 -104 -350 -105q-215 0 -348 105q-147 115 -147 325zM332 1370 q0 80 76 113q94 45 190 90q137 63 201 63q59 0 96 -41t37 -102q0 -80 -76 -113q-94 -45 -190 -90q-137 -63 -201 -63q-59 0 -96 41t-37 102z" />
<glyph unicode="&#xfb;" horiz-adv-x="1130" d="M70 397v549q0 70 45 118t114 48q166 0 166 -256q0 -49 -7 -158.5t-7 -160.5q0 -272 184 -273q184 0 185 273q0 51 -7.5 160.5t-7.5 158.5q0 256 166 256q70 0 115 -48t45 -118v-549q0 -211 -146 -325q-135 -104 -350 -105q-215 0 -348 105q-147 115 -147 325zM150 1352 q0 98 100 157q94 41 189.5 84t125.5 43q31 0 126 -43t190 -84q100 -59 100 -157q0 -47 -30.5 -86t-78.5 -39q-55 0 -159 49l-148 74q-74 -37 -145 -74q-106 -49 -162 -49q-47 0 -77.5 39t-30.5 86z" />
<glyph unicode="&#xfc;" horiz-adv-x="1130" d="M70 397v549q0 70 45 118t114 48q166 0 166 -256q0 -49 -7 -158.5t-7 -160.5q0 -272 184 -273q184 0 185 273q0 51 -7.5 160.5t-7.5 158.5q0 256 166 256q70 0 115 -48t45 -118v-549q0 -211 -146 -325q-135 -104 -350 -105q-215 0 -348 105q-147 115 -147 325zM168 1432 q0 66 47 113.5t113 47.5t112.5 -47.5t46.5 -113.5t-47 -114t-112 -48q-66 0 -113 48t-47 114zM643 1432q0 66 47 113.5t113 47.5t113 -47.5t47 -113.5t-47.5 -114t-112.5 -48q-66 0 -113 48t-47 114z" />
<glyph unicode="&#xfd;" horiz-adv-x="1107" d="M41 963q0 63 46 106t110 43q119 0 163 -121l189 -493q59 168 119 333q121 281 233 281q74 0 119 -44t45 -118q0 -106 -227 -624q-141 -315 -285 -631q-33 -80 -61 -109q-41 -45 -113 -45q-61 0 -109.5 41t-48.5 103q0 68 68 221q45 100 92 200l-172 398 q-168 401 -168 459zM319 1370q0 80 76 113q96 45 191 90q137 63 200 63q59 0 96.5 -41t37.5 -102q0 -80 -76 -113q-94 -45 -189 -90q-139 -63 -202 -63q-59 0 -96.5 41t-37.5 102z" />
<glyph unicode="&#xfe;" horiz-adv-x="1259" d="M90 -297v1729q0 74 43 117.5t117 43.5q176 0 176 -284q0 -55 -8 -148.5t-8 -118.5q111 90 264 91q221 0 364 -185q129 -170 129 -397t-129 -397q-143 -186 -364 -187q-154 0 -264 90q0 -25 7 -110.5t7 -134.5q0 -270 -174 -271q-160 0 -160 162zM410 551q0 -111 53 -189 q61 -86 166 -86q106 0 168 86q51 78 51 189t-51 186q-61 86 -168 86q-104 0 -166 -86q-53 -76 -53 -186z" />
<glyph unicode="&#xff;" horiz-adv-x="1173" d="M76 963q0 63 45 106t110 43q117 0 164 -121l189 -493q59 168 118 333q119 281 234 281q72 0 118 -44t46 -118q0 -106 -228 -624q-143 -315 -284 -631q-35 -80 -62 -109q-43 -45 -112 -45q-63 0 -110.5 41t-47.5 103q0 68 66 221l94 200l-172 398q-168 401 -168 459z M190 1432q0 66 46.5 113.5t113.5 47.5q66 0 113 -47.5t47 -113.5t-47 -114t-113 -48q-68 0 -114 48t-46 114zM666 1432q0 66 46 113.5t113 47.5q66 0 113 -47.5t47 -113.5t-47 -114t-113 -48q-68 0 -113.5 48t-45.5 114z" />
<glyph unicode="&#x152;" horiz-adv-x="2048" d="M68 737q0 340 186 549q197 219 530 219q123 0 206 -24.5t175 -94.5q25 86 133 87h508q74 0 120 -41t46 -115q0 -166 -270 -166q-51 0 -133 6t-105 6v-268q23 0 97.5 5t119.5 5q262 0 263 -164q0 -166 -263 -166q-43 0 -118.5 5.5t-98.5 5.5v-275q23 0 107 6.5t135 6.5 q274 0 274 -168q0 -74 -46 -115t-119 -41h-496q-133 0 -162 94q-152 -127 -373 -127q-336 0 -530 219q-186 211 -186 551zM424 737q0 -197 80 -317q94 -143 280 -144q178 0 271 148q78 123 78 313q0 459 -349 459q-186 0 -280 -141q-80 -121 -80 -318z" />
<glyph unicode="&#x153;" horiz-adv-x="1974" d="M70 551q0 242 147 407q152 174 391 175q227 0 406 -146q154 145 372 146q223 0 371 -162t148 -385q0 -141 -156 -142h-602q0 -88 102 -139q82 -41 178 -41q82 0 190.5 51.5t137.5 51.5q57 0 95 -41t38 -99q0 -131 -196 -204q-147 -55 -306 -56q-240 0 -393 150 q-137 -150 -385 -150q-240 0 -391 174q-147 166 -147 410zM389 551q0 -111 53 -189q59 -86 166 -86q106 0 166 86q53 78 53 189t-53 186q-59 86 -166 86q-104 0 -166 -86q-53 -76 -53 -186zM1147 666h438q0 78 -69.5 136t-149.5 58t-149.5 -58.5t-69.5 -135.5z" />
<glyph unicode="&#x178;" horiz-adv-x="1153" d="M-14 1335q0 68 57 111q49 39 119 39q102 0 246 -201q84 -133 167 -266q86 133 170 266q143 201 244 201q72 0 124 -41t52 -109q0 -82 -196 -352q-113 -147 -228 -293v-524q0 -80 -43 -129t-123 -49q-78 0 -121.5 49t-43.5 129v524q-113 145 -226 293q-199 270 -198 352z M178 1776q0 66 47 113.5t113 47.5q68 0 114 -47.5t46 -113.5t-46 -114t-114 -48q-66 0 -113 48t-47 114zM653 1776q0 66 47.5 113.5t112.5 47.5q68 0 114 -47.5t46 -113.5t-46 -114t-114 -48q-66 0 -113 48t-47 114z" />
<glyph unicode="&#x2c6;" horiz-adv-x="792" d="M-18 1352q0 98 100 157q94 41 189.5 84t125.5 43q29 0 125 -43t191 -84q100 -59 100 -157q0 -47 -31.5 -86t-76.5 -39q-55 0 -162 49q-74 37 -146 74q-74 -37 -147 -74q-106 -49 -160 -49q-47 0 -77.5 39t-30.5 86z" />
<glyph unicode="&#x2dc;" horiz-adv-x="804" d="M-33 1360q0 84 61.5 154.5t145.5 70.5q80 0 204 -49t163 -49t90 49t90 49q53 0 86 -39t33 -94q0 -84 -61.5 -154.5t-145.5 -70.5q-80 0 -204 48t-163 48t-91 -48t-89 -48q-55 0 -87 39t-32 94z" />
<glyph unicode="&#x2000;" horiz-adv-x="990" />
<glyph unicode="&#x2001;" horiz-adv-x="1980" />
<glyph unicode="&#x2002;" horiz-adv-x="990" />
<glyph unicode="&#x2003;" horiz-adv-x="1980" />
<glyph unicode="&#x2004;" horiz-adv-x="660" />
<glyph unicode="&#x2005;" horiz-adv-x="495" />
<glyph unicode="&#x2006;" horiz-adv-x="330" />
<glyph unicode="&#x2007;" horiz-adv-x="330" />
<glyph unicode="&#x2008;" horiz-adv-x="247" />
<glyph unicode="&#x2009;" horiz-adv-x="396" />
<glyph unicode="&#x200a;" horiz-adv-x="110" />
<glyph unicode="&#x2010;" horiz-adv-x="813" d="M31 578q0 61 36.5 98t98.5 37h483q61 0 98 -37t37 -98q0 -137 -135 -138h-483q-135 0 -135 138z" />
<glyph unicode="&#x2011;" horiz-adv-x="813" d="M31 578q0 61 36.5 98t98.5 37h483q61 0 98 -37t37 -98q0 -137 -135 -138h-483q-135 0 -135 138z" />
<glyph unicode="&#x2012;" horiz-adv-x="813" d="M31 578q0 61 36.5 98t98.5 37h483q61 0 98 -37t37 -98q0 -137 -135 -138h-483q-135 0 -135 138z" />
<glyph unicode="&#x2013;" horiz-adv-x="1165" d="M70 578q0 61 36.5 98t98.5 37h753q61 0 98.5 -37t37.5 -98t-36 -99.5t-100 -38.5h-753q-61 0 -98 38t-37 100z" />
<glyph unicode="&#x2014;" horiz-adv-x="2324" d="M2 578q0 59 38 97t97 38h2048q61 0 98 -38t37 -97q0 -61 -35.5 -99.5t-99.5 -38.5h-2048q-61 0 -98 38t-37 100z" />
<glyph unicode="&#x2018;" horiz-adv-x="563" d="M31 987q0 43 30 98l168 306q53 94 146 94q66 0 110.5 -38t44.5 -101q0 -45 -30 -101l-168 -303q-53 -96 -146 -96q-66 0 -110.5 38t-44.5 103z" />
<glyph unicode="&#x2019;" horiz-adv-x="563" d="M31 987q0 43 30 98l168 306q53 94 146 94q66 0 110.5 -38t44.5 -101q0 -45 -30 -101l-168 -303q-53 -96 -146 -96q-66 0 -110.5 38t-44.5 103z" />
<glyph unicode="&#x201a;" horiz-adv-x="651" d="M76 -172q0 45 30 100l168 303q53 96 146 97q66 0 110.5 -39.5t44.5 -102.5q0 -45 -30 -100l-168 -303q-53 -96 -146 -96q-66 0 -110.5 38.5t-44.5 102.5z" />
<glyph unicode="&#x201c;" horiz-adv-x="1017" d="M31 987q0 43 30 98l168 306q53 94 146 94q66 0 110.5 -38t44.5 -101q0 -45 -30 -101l-168 -303q-53 -96 -146 -96q-66 0 -110.5 38t-44.5 103zM485 987q0 43 31 98l168 306q53 94 145 94q66 0 111 -38t45 -101q0 -45 -31 -101l-168 -303q-53 -96 -145 -96q-66 0 -111 38 t-45 103z" />
<glyph unicode="&#x201d;" horiz-adv-x="1017" d="M31 987q0 43 30 98l168 306q53 94 146 94q66 0 110.5 -38t44.5 -101q0 -45 -30 -101l-168 -303q-53 -96 -146 -96q-66 0 -110.5 38t-44.5 103zM485 987q0 43 31 98l168 306q53 94 145 94q66 0 111 -38t45 -101q0 -45 -31 -101l-168 -303q-53 -96 -145 -96q-66 0 -111 38 t-45 103z" />
<glyph unicode="&#x201e;" horiz-adv-x="1105" d="M76 -172q0 45 30 100l168 303q53 96 146 97q66 0 110.5 -39.5t44.5 -102.5q0 -45 -30 -100l-168 -303q-53 -96 -146 -96q-66 0 -110.5 38.5t-44.5 102.5zM530 -172q0 45 31 100l168 303q53 96 145 97q66 0 111 -39.5t45 -102.5q0 -45 -31 -100l-168 -303 q-53 -96 -145 -96q-66 0 -111 38.5t-45 102.5z" />
<glyph unicode="&#x2022;" horiz-adv-x="890" d="M80 737q0 152 107.5 259.5t256.5 107.5q152 0 258.5 -107.5t106.5 -259.5t-106.5 -260t-258.5 -108q-150 0 -257 108.5t-107 259.5z" />
<glyph unicode="&#x2026;" horiz-adv-x="1964" d="M123 147q0 72 53 126.5t125 54.5t125 -54.5t53 -126.5q0 -74 -53 -127t-125 -53q-74 0 -126 53.5t-52 126.5zM805 147q0 72 53 126.5t125 54.5t125 -54.5t53 -126.5q0 -74 -53 -127t-125 -53q-74 0 -126 53.5t-52 126.5zM1487 147q0 72 53 126.5t125 54.5t125 -54.5 t53 -126.5q0 -74 -53 -127t-125 -53q-74 0 -126 53.5t-52 126.5z" />
<glyph unicode="&#x202f;" horiz-adv-x="396" />
<glyph unicode="&#x2039;" horiz-adv-x="655" d="M96 578q0 100 84 174q86 61 170 120q59 43 105 43q45 0 74.5 -31.5t29.5 -76.5q0 -78 -86 -139q-76 -45 -151 -90q74 -45 149 -91q88 -65 88 -139q0 -45 -29.5 -77.5t-74.5 -32.5t-105 43q-84 61 -170 120q-84 76 -84 177z" />
<glyph unicode="&#x203a;" horiz-adv-x="677" d="M109 348q0 76 86 139q76 45 151 91q-76 45 -151 90q-86 63 -86 139q0 45 29.5 76.5t74.5 31.5t104 -43q84 -59 170 -120q84 -74 84 -174t-86 -177q-84 -59 -168 -120q-59 -43 -104 -43q-47 0 -75.5 32.5t-28.5 77.5z" />
<glyph unicode="&#x205f;" horiz-adv-x="495" />
<glyph unicode="&#x2122;" horiz-adv-x="2129" d="M125 1380q0 92 100 93h506q98 -1 98 -93q0 -96 -137 -96h-49q-31 2 -43 2v-549q0 -57 -34 -96t-89 -39t-89 39t-34 96v549q-12 0 -41 -2h-47q-141 0 -141 96zM961 737v561q0 84 44 135.5t125 51.5q109 0 185 -94q55 -68 102 -205q33 -102 66 -205q33 102 65 205 q47 137 103 205q76 94 184 94q82 0 126 -51.5t44 -135.5v-561q0 -55 -34 -95t-89 -40q-137 0 -137 262q0 55 7 145.5t7 110.5h-4l-149 -409q-39 -109 -123 -109t-123 109l-150 409h-4q0 -20 7.5 -110t7.5 -146q0 -262 -138 -262q-55 0 -88.5 40t-33.5 95z" />
<glyph unicode="&#x25fc;" horiz-adv-x="1116" d="M0 0v1116h1116v-1116h-1116z" />
</font>
</defs>
</svg>
